游客您好
第三方账号登陆
  • 点击联系客服

    在线时间:9:00-18:00

    客服QQ

    1371333023

    电子邮件

    lanniao@1080pro.net
  • 烧友之家APP

    随时掌握烧友资讯

  • 扫描二维码

    关注微信公众号

推荐阅读
蓝鸟
未知星球 | 未知职业
  • 关注0
  • 粉丝2
  • 帖子93937
精选帖子
开启左侧

Dorys.Reef.Cam.4K.2020.2160p.DSNP.WEBRip.x265.10bit.HDR.DDP5.1-4k电影下载—21.35 GB

[复制链接]
蓝鸟 发表于 2021-4-15 19:36:08 | 显示全部楼层 |阅读模式 打印 上一主题 下一主题
Dorys.Reef.Cam
上映时间:2020年
类型:动画 冒险 短片 
地区:美国 
导演:米哈尔·马卡雷维奇(Michal Makarewicz)
主演:
画质标准:4K HDR  封装音轨:DTS-HD.MA 5.1 
豆瓣评分:3.6分

加入蓝光高清网,轻松下载最新4k资源

您需要 登录 才可以下载或查看,没有帐号?立即注册

x
简       介: u, C" U/ \- a7 N) k
: I$ [2 s# j0 G
  Dive into the waters below and watch the aquatic wildlife from the world of Nemo and Dory.
4 Y8 X& U8 |7 Q2 B& F4 y4 I0 v% {

4 b8 ?5 g4 ?. W! H5 \- o% r9 r5 O8 A影片参数
( u. w: h8 o- H0 n  G2 z
Dorys.Reef.Cam.4K.2020.2160p.DSNP.WEBRip.x265.10bit.HDR.DDP5.1-4k电影信息
" h% [% s( J/ J0 e% {* M. G4 JVideo7 _* b6 j6 o) `$ S& A$ K
ID : 1
) x8 I2 p9 z4 MFormat : HEVC
) a- m0 V3 D* A5 e+ W: tFormat/Info : High Efficiency Video Coding0 n" Y% N1 g" q4 A
Format profile : Main 10@L5@High
) p# O! v! k& l* D# V/ {HDR format : SMPTE ST 2086, HDR10 compatible) H3 L/ H6 v9 b; `; z
Codec ID : V_MPEGH/ISO/HEVC; j$ m+ }8 ?$ o
Duration : 3 h 1 min( T0 c8 \, P7 [
Bit rate : 16.5 Mb/s5 C: Y3 h6 K7 A6 f3 G+ n
Width : 3 840 pixels
7 Q7 w$ l9 S( y* W9 u/ sHeight : 2 160 pixels/ i7 x/ I! h& w2 h( j
Display aspect ratio : 16:9/ h# n  I# x2 d4 I6 v7 z0 `, B
Frame rate mode : Constant' @& l* d7 N0 m7 o  o) k2 H1 z
Frame rate : 23.976 (24000/1001) FPS
) ?) S8 n/ q+ m% b  t5 e4 t% ]Color space : YUV
% a+ `% m- X5 bChroma subsampling : 4:2:0
8 R) _4 E4 j3 {% _- z: uBit depth : 10 bits
  Z' k- [$ L" I7 h" pBits/(Pixel*Frame) : 0.0832 J  i0 d- ?3 q& o/ J; Z
Stream size : 21.0 GiB (98%)
# Z9 u2 x6 f2 l- M9 o$ b' LDefault : Yes
- y9 \# T; Q: O6 Q7 o$ aForced : No3 M* _7 S$ r/ f% G) |$ Q2 x8 d) p3 R
Color range : Limited: }- A, E9 v  ?% o- j
Color primaries : BT.20202 ?  \) f* f  T7 V! d& D5 c! s# g
Transfer characteristics : PQ) t0 E; P( g# c; ]
Matrix coefficients : BT.2020 non-constant
' k3 ?$ |1 T. L& n% S- j' BMastering display color primaries : BT.2020
8 N) M( E( }( ^$ Z' x7 y5 eMastering display luminance : min: 0.0000 cd/m2, max: 1000 cd/m2' z2 U" ^  i8 ]

8 o, M! ]7 w' R( r$ N, X

2 M3 n/ ]  |  w) {Audio# Z  y- p! \$ ]2 s
ID : 2
- A! L: e! c: {. o  vFormat : E-AC-3
# _$ L+ ~: n- J# y- P" O" I/ ^( JFormat/Info : Enhanced AC-3
0 l; x8 w8 k! L0 dCommercial name : Dolby Digital Plus6 V' m1 v  p6 h! D/ W6 [
Codec ID : A_EAC38 D! |! A! Q5 y: E2 {1 }3 W
Duration : 3 h 1 min& I4 T' q3 K7 x* X- R, _* j& Z
Bit rate mode : Constant0 `' q9 [: L' e* C9 A9 J
Bit rate : 256 kb/s
4 z. P8 O2 C. |2 x" s  \$ [Channel(s) : 6 channels3 z+ T+ s3 A; c
Channel layout : L R C LFE Ls Rs
1 U+ Y' I6 k1 f" ~+ M4 P0 c& m# }Sampling rate : 48.0 kHz
# Y/ C4 N, n0 X( C" p/ sFrame rate : 31.250 FPS (1536 SPF)
$ M. f& k2 p5 x: a. J5 m& B, b; UCompression mode : Lossy7 v9 }) N% S& s' ~0 V
Stream size : 333 MiB (2%)8 C; k! u6 y7 w# t. k. t
Language : English! Y& y. h( j1 c* e8 }7 B  P2 h
Service kind : Complete Main9 M, ~  i& x7 Z8 x; q" a$ N4 T
Default : Yes7 x( K. {# Z& V- K2 z' @+ f
Forced : No. e( D+ |1 W% l% G% y1 j1 N

6 @: B/ o  H; ~2 }/ T( G
! L0 T0 n- G* }6 v% u
Text: r: _$ O7 t& ]9 U3 o+ j$ s
ID : 3) G7 _7 L' e4 {3 d
Format : UTF-8
2 _" ]/ u8 p, Q3 ~Codec ID : S_TEXT/UTF82 h; I  o# v  x+ d) ~/ l
Codec ID/Info : UTF-8 Plain Text
" S- w* b+ F- [! j; ^. W  GDuration : 3 h 1 min
6 W: u/ _3 l  \0 ?, x) r, ?Bit rate : 2 b/s
( V' u' V. s- f' Z/ o; {- jCount of elements : 2481 U( H( i6 N* _$ f( \9 B0 |7 a  P+ X* Q
Stream size : 2.99 KiB (0%), p( V' J" V* a- D; i$ e
Title : English (SDH)
8 }5 B4 j" H% u% J- q' _Language : English
, \! F; \/ _/ i* E8 F+ pDefault : No" u' x4 d1 B* @. O* B) ^
Forced : No

+ ~& k2 U$ s, j( I8 @
# F  q" E' o8 B# X8 p: K8 Q蓝光高清网提示您  点击下方附件名即可开始下载& Q: Y8 I; q- t) u4 l3 p
' u/ \3 ^- W1 A  Q! D1 g3 {' A

: a- L& `+ \: ?/ BDorys.Reef.Cam.4K.2020.2160p.DSNP.WEBRip.x265.10bit.HDR.DDP5.1-4K电影动画片下载
) y  o% v0 a  p, }
# Z. [* P$ N/ _- jDorys.Reef.Cam.4K.2020.2160p.DSNP.WEBRip.x265.10bit.HDR.DDP5.1【4K HDR 21.35GB】
% Z3 v7 |, z7 c* x- y3 L9 |! [ Dorys.Reef.Cam.4K.2020.2160p.DSNP.WEBRip.x265.10bit.HDR.DDP5.1-SWTYBLZ.torrent (文件大小:54.03 KB)
加入蓝光高清网VIP会员  无限制下载本站所有资源---点这里

资源下载、资源播放、字幕使用、无法下载等常见问题---点这里
回复

使用道具 举报

您需要登录后才可以回帖 登录 | 立即注册

本版积分规则

烧友之家(蓝光高清网)本站内容部分由用户自主分享和转载自互联网,转载目的在于传递更多信息,并不代表本网赞同其观点和对其真实性负责。 如有侵权、违反国家法律政策行为,请联系我们,我们会第一时间及时清除和处理!
蓝光高清网 综合资讯平台
关注我们
  • 官方微信公众号
  • 扫码下载官方APP

X3.4 Licensed© 2001-2013 蓝光高清网 烧友之家APP |网站地图