游客您好
第三方账号登陆
  • 点击联系客服

    在线时间:9:00-18:00

    客服QQ

    1371333023

    电子邮件

    lanniao@1080pro.net
  • 烧友之家APP

    随时掌握烧友资讯

  • 扫描二维码

    关注微信公众号

推荐阅读
蓝鸟
未知星球 | 未知职业
  • 关注0
  • 粉丝2
  • 帖子93936
精选帖子
开启左侧

米纳里 4K.Minari.2020.KOREAN.ENSUBBED.2160p.AMZN.WEB-DL.x265.10bit.HDR10Plus.DDP5.1-4k电影下载—12.47 GB

[复制链接]
蓝鸟 发表于 2021-4-15 19:39:39 | 显示全部楼层 |阅读模式 打印 上一主题 下一主题
米纳里
上映时间:2020年
类型:剧情 
地区:美国 
导演:李·以萨克·郑
主演:史蒂文·元 / 韩艺璃 / 达里尔·考克斯 / 威尔·帕顿 / 尹汝贞
画质标准:4K HDR  封装音轨:Dolby TrueHD 5.1 
豆瓣评分:7.3分

加入蓝光高清网,轻松下载最新4k资源

您需要 登录 才可以下载或查看,没有帐号?立即注册

x
简       介$ O0 z# z+ x8 ]% [. o, H& k

5 r0 N1 d9 Y7 v$ H& s, D# T5 t  故事发生在20世纪80年代的美国,美籍韩裔男子雅各布(史蒂文·元 Steven Yeun 饰)带着妻子莫妮卡(韩艺璃 饰)和两个孩子大卫(Alan S. Kim 饰)、安妮(Noel Cho 饰)一起从熟悉的西海岸搬到了偏僻而又陌生的阿肯色州。虽然对于丈夫的这一决定,莫妮卡的心中十分的反对,但她拗不过雅各布的坚决和顽固,只得被迫夫唱妇随。
5 [% z% J% ~( m: `* t  蛮荒之地的生活既不舒适也不有趣,在最初的新鲜感过去之后,大卫和安妮很快就开始怀念起过去的生活了。之后,孩子们的外婆也来到了他们的身边,给这个家庭带来了一丝热闹的气息。雅各布没有发现的是,当他将越来越多的时间和精力投入到开发农场这件事情上时,他和妻子之间的距离就越来越远。
' s; Z' a. n- e$ c+ x% t6 ?

. J7 X; F. [, Z& N' {" S! v# {

* I/ I: a" a( R; q; Q5 x影片参数) W+ k' e! y6 M& p% k2 t) E2 s4 {
梦想之地(台) / 农情家园(港) / 미나리 / 水芹菜/米纳里4K.Minari.2020.KOREAN.ENSUBBED.2160p.AMZN.WEB-DL.x265.10bit.HDR10Plus.DDP5.1-4k电影信息
, Y9 g, T  x: g" A! E# LVideo
+ M7 K( E* L6 F+ oID : 1
& q  c) V- g% b& FFormat : HEVC
3 b( \' J3 p) ^* s4 F) tFormat/Info : High Efficiency Video Coding; c5 P" R' W: {3 {* q6 t
Format profile : Main 10@L5@Main
3 L$ K, m3 f! H" qHDR format : SMPTE ST 2094 App 4, Version 1, HDR10+ Profile B compatible
; e: @# l$ X3 dCodec ID : V_MPEGH/ISO/HEVC$ I2 j/ q  x1 y3 n. d/ I  n, ^
Duration : 1 h 55 min
) T- J# c# @' b$ TBit rate : 14.9 Mb/s* s. W" d! Z' O% h* b, J" a% Z, X
Width : 3 840 pixels
: B/ x; K3 M* I" v7 S  oHeight : 1 600 pixels7 T) B9 D* U, n7 \+ V
Display aspect ratio : 2.40:1
8 P# \, a1 f- }Frame rate mode : Constant% X, k# b2 F+ S7 N- ]2 n
Frame rate : 23.976 (24000/1001) FPS3 \9 z) c8 q$ i5 F, A$ |( |
Color space : YUV
$ [6 I8 K8 m# F( C# BChroma subsampling : 4:2:0
7 l+ p; f; E6 ^6 e# }Bit depth : 10 bits
" }6 N* z# i/ m' z+ k8 Q0 i# S7 cBits/(Pixel*Frame) : 0.1012 \  s, t4 q! N  N
Stream size : 12.0 GiB (96%)6 X& ^+ e6 m% @) l
Default : Yes! T$ a. U& L7 P0 R5 a0 i3 k8 R
Forced : No4 c8 G7 ^- m' z- H  I6 O& y" @- N
Color range : Limited6 J* s& V/ Q! O" {0 q3 y
Color primaries : BT.2020
+ m8 u: L+ a& kTransfer characteristics : PQ& w9 V, Q" Z( O
Matrix coefficients : BT.2020 non-constant  g( w0 ~- v) X: \4 P2 K2 Y& s! O
Mastering display color primaries : Display P3
3 h# A* q4 m+ h, @7 eMastering display luminance : min: 0.0250 cd/m2, max: 20000 cd/m27 P3 J* R' t  i/ ]$ U% [6 r
Maximum Content Light Level : 2238 cd/m22 O+ z( Z8 y. N. z
Maximum Frame-Average Light Level : 236 cd/m2
- }5 F9 @( E& U) @. F
5 d* \: q0 p& a% p) ]( d. E3 K
8 V3 k& H4 _- Y. K$ s
Audio
8 E2 P* ~$ g0 j" U0 CID : 29 E$ v* R: d: Z/ n8 S2 P
Format : E-AC-3* y8 K& X9 `/ {) N$ |# Z% r& ]% p
Format/Info : Enhanced AC-3. \* F" L4 Q' [! r" D+ Z: G
Commercial name : Dolby Digital Plus
: X. a2 N4 X' e1 `& H! U2 KCodec ID : A_EAC3
, g6 }" c* _0 u$ G# b: U; N3 _Duration : 1 h 55 min2 f0 Q3 P+ o% e6 e0 I. o
Bit rate mode : Constant( G- |1 {9 d) E* n; O  `
Bit rate : 640 kb/s& O+ j( u3 k' J
Channel(s) : 6 channels& j/ N0 k# _$ j. z
Channel layout : L R C LFE Ls Rs
0 Y9 o) |$ j; q. O. H$ ]5 y+ @3 S+ bSampling rate : 48.0 kHz9 W5 T# l( l% z5 \9 {" y. Z
Frame rate : 31.250 FPS (1536 SPF)2 i( ?) r8 o9 |& W$ j
Compression mode : Lossy
! k1 j' u$ _  e' x4 q4 i" GStream size : 527 MiB (4%)3 ]: m' f! r9 g/ P4 l
Title : DDP 5.1
# _2 I1 s7 ], u, K/ @, XLanguage : Korean
& f8 ?" `# G0 z' s) k; {3 j4 x" a9 y; xService kind : Complete Main
5 R6 ]$ W! c" C. d: Y1 vDefault : Yes+ b; K8 S$ s! l0 b
Forced : No
- y/ I5 ?) ]9 u. B# ~
' A: S2 U' E$ H7 E
  G( p9 M$ p( A& n4 G/ P
Text6 D; @* z4 B) H( d
ID : 3
  u' l; O+ D( Y, C6 \& n! z! LFormat : UTF-80 a) F+ O' a, M5 ~- J
Codec ID : S_TEXT/UTF8
$ ?: h* y5 {. T! B  g' T- ^Codec ID/Info : UTF-8 Plain Text
1 Z" O# r7 q: O4 j9 z0 `% FDuration : 1 h 54 min
. g, ^  ]& Q3 L, C7 |4 tBit rate : 26 b/s, G! ?. }' S, R! b6 h
Count of elements : 948
+ e1 i4 H4 h) ]4 }3 v9 n  n; Z# gStream size : 22.0 KiB (0%)
' K7 O4 d: B6 oTitle : SDH/ O  |2 ~: m+ Y: E. \$ p
Language : English4 [7 T3 e) {/ m0 }) Q
Default : No  g/ z# A+ Z! `3 S. B
Forced : No; J+ u9 a9 ]* }5 C2 d3 Q

( ?9 E3 a# J( z+ x( p" d" y

" g+ y7 }0 s" mMenu8 ^8 @6 s$ S( q- r* x6 T5 I
00:00:00.000 : Scene 1% M; W9 u( o5 L$ G2 a
00:00:08.000 : Scene 2
- x$ ~  _5 M+ l0 |' ?00:00:35.000 : Title Sequence# Z1 a! P* L1 l; c
00:00:40.000 : Scene 49 R5 o9 b! D& v) [: o. c+ D/ d# S
00:08:10.000 : Scene 5
( i, j0 R3 r2 ?% D& `# @+ t7 X; c00:16:09.000 : Scene 68 D; |8 v% k1 d
00:23:12.000 : Scene 7
& e; M2 k  S" J$ S' E: k00:31:11.000 : Scene 8
: Z% I; D1 |* P) U' q+ r/ }00:37:58.000 : Scene 9. _/ E# d4 q, C* T& r
00:46:18.000 : Scene 10/ {, X4 [. u$ B: u5 P# u
00:54:08.000 : Scene 11! |% K: s- P9 ]) X6 c0 X
01:00:06.000 : Scene 12* w( X- E. i. [: _& \) W6 K
01:07:18.000 : Scene 13
1 h2 y1 y2 Q. O' z  @+ y. a/ j; @2 ^9 e01:15:12.000 : Scene 148 ?9 |3 e7 @0 w6 h1 z' Z
01:22:14.000 : Scene 157 v9 S+ L; S1 d5 }! K
01:29:12.000 : Scene 16
* J& c8 Z3 {# ~3 c01:36:58.000 : Scene 17
  R# w2 p) K) ?" @  E5 `3 s01:42:09.000 : Scene 18
' z8 B" `, X  @, ^3 t. A9 G01:51:35.000 : End Credits

* Y4 Q4 l1 @/ ^5 ~  ?+ H
' [* j, M- q; v2 R蓝光高清网提示您  点击下方附件名即可开始下载, x/ C5 I8 C! @3 H% s6 I

( c% p7 v5 Z5 S! x% E* l" ^
3 ]3 O! z5 j2 H9 b  r
梦想之地(台) / 农情家园(港) / 미나리 / 水芹菜/米纳里4K.Minari.2020.KOREAN.ENSUBBED.2160p.AMZN.WEB-DL.x265.10bit.HDR10Plus.DDP5.1-4K电影下载
; h: u, K6 ~/ }5 U' |6 ~9 g5 m& u! D8 x6 o) H
米纳里4K.Minari.2020.KOREAN.ENSUBBED.2160p.AMZN.WEB-DL.x265.10bit.HDR10Plus.DDP5.1【4K HDR 12.47 GB】
1 U1 z; N) t+ p 米纳里4K.Minari.2020.KOREAN.ENSUBBED.2160p.AMZN.WEB-DL.x265.10bit.HDR10Pl.torrent (文件大小:63.02 KB)
加入蓝光高清网VIP会员  无限制下载本站所有资源---点这里

资源下载、资源播放、字幕使用、无法下载等常见问题---点这里
回复

使用道具 举报

精彩评论2

美团骑士手机认证 发表于 2021-4-24 08:01:08 | 显示全部楼层
感谢楼主上传优秀资源
回复 支持 反对

使用道具 举报

ggang1 发表于 2021-4-24 12:47:00 | 显示全部楼层
) J) H7 N" k# V& v9 P/ @0 |& Y
谢楼主分享
回复 支持 反对

使用道具 举报

您需要登录后才可以回帖 登录 | 立即注册

本版积分规则

烧友之家(蓝光高清网)本站内容部分由用户自主分享和转载自互联网,转载目的在于传递更多信息,并不代表本网赞同其观点和对其真实性负责。 如有侵权、违反国家法律政策行为,请联系我们,我们会第一时间及时清除和处理!
蓝光高清网 综合资讯平台
关注我们
  • 官方微信公众号
  • 扫码下载官方APP

X3.4 Licensed© 2001-2013 蓝光高清网 烧友之家APP |网站地图