游客您好
第三方账号登陆
  • 点击联系客服

    在线时间:9:00-18:00

    客服QQ

    1371333023

    电子邮件

    lanniao@1080pro.net
  • 烧友之家APP

    随时掌握烧友资讯

  • 扫描二维码

    关注微信公众号

推荐阅读
蓝鸟
未知星球 | 未知职业
  • 关注0
  • 粉丝2
  • 帖子93931
精选帖子
开启左侧

地球改变之年 4K.The.Year.Earth.Changed.2021.HDR.2160p.WEB.H265-4K纪录片下载—8.53 GB

[复制链接]
蓝鸟 发表于 2021-4-17 12:55:19 | 显示全部楼层 |阅读模式 打印 上一主题 下一主题
地球改变之年
上映时间:2021年
类型:记录 
地区:美国 
导演:汤姆·比尔德
主演:大卫·爱登堡
画质标准:4K HDR  封装音轨:Dolby TrueHD 5.1 
豆瓣评分:8.2分

加入蓝光高清网,轻松下载最新4k资源

您需要 登录 才可以下载或查看,没有帐号?立即注册

x
简       介0 d  d! f: _/ \
$ `( w2 D6 A1 D% {& @: J9 S1 o) t
  大卫·爱登堡担任旁白的Apple TV+纪录片《地球改变之年》(The Year Earth Changed,暂译)释出正式预告!该片由汤姆·比尔德执导,镜头将对准疫情下的人类与野生动物,以全新的视角来看待大自然。该片将于4月16日播出。
  K, a1 h) q3 x( s- J+ L. v8 ?
' x$ G% L9 v" U% f6 c3 W; y+ l

" l, j% F+ a) Y' i) W& Y影片参数
  v. b" H/ A# V4 d& i
地球改变之年4K.The.Year.Earth.Changed.2021.HDR.2160p.WEB.H265-4K纪录片信息
) O# T# B, o, z7 B0 F* f9 XVideo
5 k* o* ?! d+ g4 }0 MID : 1% m) a, g+ A% [* a9 a4 k" Q
Format : HEVC4 q5 x' l- }/ U) N, \. U
Format/Info : High Efficiency Video Coding7 `2 z7 L# l. h9 O# q9 B$ [7 S" f. f& w
Format profile : Main 10@L5@High8 z: V' m8 s( P/ @1 l! |8 I5 e0 C
HDR format : SMPTE ST 2086, HDR10 compatible( P) U" d2 p$ _5 f+ }
Codec ID : V_MPEGH/ISO/HEVC/ I8 b- K7 n! ^9 x; M
Duration : 48 min 20 s! Q* ^1 k. z4 L* F; |& g7 D
Bit rate : 23.4 Mb/s
7 t( `# H2 H$ HWidth : 3 840 pixels3 m! F9 M1 _+ R# c" n2 T3 u
Height : 2 160 pixels* ^* O8 L' i% A
Display aspect ratio : 16:9) L+ ^5 i+ S# s: x
Frame rate mode : Constant
( ~/ M7 @2 ^- X# YFrame rate : 23.976 (24000/1001) FPS: `) y7 y! R* L/ I6 p
Color space : YUV
1 G& w7 q- D2 _Chroma subsampling : 4:2:0 (Type 2)
$ R% @6 I3 s" c- m: R+ ZBit depth : 10 bits2 x! E3 Z8 J0 Z
Bits/(Pixel*Frame) : 0.118
) V% o8 x. `7 LStream size : 7.91 GiB (95%)
# f* Q) _5 S9 l9 U! D" \: ^, xLanguage : English
! Y: ?; Y! b& S! E# R' a) t1 b9 NDefault : Yes2 u7 C4 q: o/ D# Y# i
Forced : No
% ]& p" }4 y) B8 K. u7 DColor range : Limited4 R/ U& \( w1 _" B
Color primaries : BT.2020/ c8 ^# _- U5 o. S, p+ `
Transfer characteristics : PQ
# Q- ?" u; Q: r, F& ~7 P3 q5 y9 C0 XMatrix coefficients : BT.2020 non-constant  a# a, o7 i6 ?9 |) H' j
Mastering display color primaries : Display P3
7 E7 g" m* z" RMastering display luminance : min: 0.0050 cd/m2, max: 1000 cd/m27 b3 I& r$ {$ }% j* o( q3 ~0 I
Maximum Content Light Level : 2444 cd/m2
. w  K+ R% o8 b: f0 vMaximum Frame-Average Light Level : 325 cd/m2
! p* `/ N6 w. G& H7 b6 Z: {
5 J! {" a! Q% `

  I- K- R' q( B" m% ?, s  k: xAudio7 ^8 ]: J( [& z/ Z1 {' h0 }4 D
ID : 2
" E- Q* ~4 T+ q. }Format : E-AC-3 JOC
) B2 c+ R! y) G8 q$ l( M$ zFormat/Info : Enhanced AC-3 with Joint Object Coding- v- k4 }7 b2 y- ]7 {
Commercial name : Dolby Digital Plus with Dolby Atmos/ g  `; ~! `3 V8 j9 _- B# e7 e  Y
Codec ID : A_EAC38 W" B7 G! X4 ~% ^
Duration : 48 min 20 s  F: P+ e, H5 w; y: _1 |) f; `, z
Bit rate mode : Constant/ g) A5 n$ A# h, U( o8 A( a+ x
Bit rate : 768 kb/s( X) Y% T) I' C% H2 b! A% m. [
Channel(s) : 6 channels/ q7 h3 r- i1 m$ F  v- @$ {
Channel layout : L R C LFE Ls Rs% E* j9 S/ l' F' o6 w
Sampling rate : 48.0 kHz
/ z* v+ @  J& b) E3 V$ T. PFrame rate : 31.250 FPS (1536 SPF)
) c" m1 s% Q- \+ `2 P3 ?% WCompression mode : Lossy: B! y! r, E# D, [
Stream size : 266 MiB (3%)1 Z+ J! P( E1 ~" A  s2 V, `9 ~
Language : English
8 U3 k  ]: y7 j0 FService kind : Complete Main
/ |8 K1 K- m% Q. D$ [/ @Default : Yes
$ h* C% O$ o! M" R: PForced : No
5 G2 f4 C/ v/ Y- n& s# [8 gComplexity index : 16
# s; r+ F' R) |, [- x4 h; r4 aNumber of dynamic objects : 156 n% Q) u' O! b! e" k- t1 w# o
Bed channel count : 1 channel; P3 U9 i& \6 v9 l
Bed channel configuration : LFE
2 \7 `8 n' |0 Y% {7 k  J
* s0 E7 R; D- a' t! R) w$ k' _
蓝光高清网提示您  点击下方附件名即可开始下载
: \5 R% ~/ t) x
3 d. c: Z5 a) `: X, J1 H& W! j

+ [' v2 ?. b5 O地球改变之年4K.The.Year.Earth.Changed.2021.HDR.2160p.WEB.H265-4K纪录片下载* A& a) x$ t# s) l$ k8 Y
9 _! Y% M3 A  N& Z  ~6 ^( q% ?) H
地球改变之年4K.The.Year.Earth.Changed.2021.HDR.2160p.WEB.H265【4K HDR 8.53GB】7 \7 S) ~4 m4 H# _' X8 K- y9 v
地球改变之年4K.The.Year.Earth.Changed.2021.HDR.2160p.WEB.H265-NAISU.torrent (文件大小:43.47 KB)
加入蓝光高清网VIP会员  无限制下载本站所有资源---点这里

资源下载、资源播放、字幕使用、无法下载等常见问题---点这里
回复

使用道具 举报

精彩评论4

㊣龙啸八音手机认证 发表于 2021-4-18 13:48:11 | 显示全部楼层
抢座沙发
回复

使用道具 举报

bengoben手机认证 发表于 2021-4-21 23:36:03 | 显示全部楼层
每天都来打卡~~
回复 支持 反对

使用道具 举报

ggang1 发表于 2021-4-22 10:16:55 | 显示全部楼层
谢楼主分享
回复 支持 反对

使用道具 举报

ralton手机认证 发表于 2021-4-23 20:25:30 | 显示全部楼层
谢谢楼主分享
回复 支持 反对

使用道具 举报

您需要登录后才可以回帖 登录 | 立即注册

本版积分规则

烧友之家(蓝光高清网)本站内容部分由用户自主分享和转载自互联网,转载目的在于传递更多信息,并不代表本网赞同其观点和对其真实性负责。 如有侵权、违反国家法律政策行为,请联系我们,我们会第一时间及时清除和处理!
蓝光高清网 综合资讯平台
关注我们
  • 官方微信公众号
  • 扫码下载官方APP

X3.4 Licensed© 2001-2013 蓝光高清网 烧友之家APP |网站地图