游客您好
第三方账号登陆
  • 点击联系客服

    在线时间:9:00-18:00

    客服QQ

    1371333023

    电子邮件

    lanniao@1080pro.net
  • 烧友之家APP

    随时掌握烧友资讯

  • 扫描二维码

    关注微信公众号

推荐阅读
蓝鸟
未知星球 | 未知职业
  • 关注0
  • 粉丝2
  • 帖子93936
精选帖子
开启左侧

[动物世界] 地球改变之年 4K.The.Year.Earth.Changed.2021.HDR.2160p.WEB.H265-4K纪录片下载—8.53 GB

[复制链接]
蓝鸟 发表于 2021-4-17 12:55:39 | 显示全部楼层 |阅读模式 打印 上一主题 下一主题

加入蓝光高清网,轻松下载最新4k资源

您需要 登录 才可以下载或查看,没有帐号?立即注册

x
简       介

  大卫·爱登堡担任旁白的Apple TV+纪录片《地球改变之年》(The Year Earth Changed,暂译)释出正式预告!该片由汤姆·比尔德执导,镜头将对准疫情下的人类与野生动物,以全新的视角来看待大自然。该片将于4月16日播出。


影片参数
地球改变之年4K.The.Year.Earth.Changed.2021.HDR.2160p.WEB.H265-4K纪录片信息
Video
ID : 1
Format : HEVC
Format/Info : High Efficiency Video Coding
Format profile : Main 10@L5@High
HDR format : SMPTE ST 2086, HDR10 compatible
Codec ID : V_MPEGH/ISO/HEVC
Duration : 48 min 20 s
Bit rate : 23.4 Mb/s
Width : 3 840 pixels
Height : 2 160 pixels
Display aspect ratio : 16:9
Frame rate mode : Constant
Frame rate : 23.976 (24000/1001) FPS
Color space : YUV
Chroma subsampling : 4:2:0 (Type 2)
Bit depth : 10 bits
Bits/(Pixel*Frame) : 0.118
Stream size : 7.91 GiB (95%)
Language : English
Default : Yes
Forced : No
Color range : Limited
Color primaries : BT.2020
Transfer characteristics : PQ
Matrix coefficients : BT.2020 non-constant
Mastering display color primaries : Display P3
Mastering display luminance : min: 0.0050 cd/m2, max: 1000 cd/m2
Maximum Content Light Level : 2444 cd/m2
Maximum Frame-Average Light Level : 325 cd/m2


Audio
ID : 2
Format : E-AC-3 JOC
Format/Info : Enhanced AC-3 with Joint Object Coding
Commercial name : Dolby Digital Plus with Dolby Atmos
Codec ID : A_EAC3
Duration : 48 min 20 s
Bit rate mode : Constant
Bit rate : 768 kb/s
Channel(s) : 6 channels
Channel layout : L R C LFE Ls Rs
Sampling rate : 48.0 kHz
Frame rate : 31.250 FPS (1536 SPF)
Compression mode : Lossy
Stream size : 266 MiB (3%)
Language : English
Service kind : Complete Main
Default : Yes
Forced : No
Complexity index : 16
Number of dynamic objects : 15
Bed channel count : 1 channel
Bed channel configuration : LFE


蓝光高清网提示您  点击下方附件名即可开始下载


地球改变之年4K.The.Year.Earth.Changed.2021.HDR.2160p.WEB.H265-4K纪录片下载

地球改变之年4K.The.Year.Earth.Changed.2021.HDR.2160p.WEB.H265【4K HDR 8.53GB】


地球改变之年4K.The.Year.Earth.Changed.2021.2160p.WEB.H265【4K 7.29 GB】


更多4K UHD蓝光原盘电影纪录片合辑下载
https://www.1080pro.net/topic-jlp.html


来源: 地球改变之年 4K.The.Year.Earth.Changed.2021.HDR.2160p.WEB.H265-4K纪录片下载—8.53 GB
加入蓝光高清网VIP会员  无限制下载本站所有资源---点这里

资源下载、资源播放、字幕使用、无法下载等常见问题---点这里
回复

使用道具 举报

您需要登录后才可以回帖 登录 | 立即注册

本版积分规则

烧友之家(蓝光高清网)本站内容部分由用户自主分享和转载自互联网,转载目的在于传递更多信息,并不代表本网赞同其观点和对其真实性负责。 如有侵权、违反国家法律政策行为,请联系我们,我们会第一时间及时清除和处理!
蓝光高清网 综合资讯平台
关注我们
  • 官方微信公众号
  • 扫码下载官方APP

X3.4 Licensed© 2001-2013 蓝光高清网 烧友之家APP |网站地图