游客您好
第三方账号登陆
  • 点击联系客服

    在线时间:9:00-18:00

    客服QQ

    1371333023

    电子邮件

    lanniao@1080pro.net
  • 烧友之家APP

    随时掌握烧友资讯

  • 扫描二维码

    关注微信公众号

推荐阅读
蓝鸟
未知星球 | 未知职业
  • 关注0
  • 粉丝2
  • 帖子93931
精选帖子
开启左侧

信使 4K.The.Courier.2021.2160p.WEB-DL.x265.10bit.HDR.DDP5.1-4k电影下载—11.61 GB

[复制链接]
蓝鸟 发表于 2021-4-17 12:58:43 | 显示全部楼层 |阅读模式 打印 上一主题 下一主题
信使
上映时间:2021年
类型:惊悚 
地区:英国 
导演:多米尼克·库克
主演:本尼迪克特·康伯巴奇 / 瑞秋·布罗斯纳安 / 梅拉布·尼尼泽 / 玛丽亚·米罗诺娃 / 安东·莱瑟
画质标准:4K HDR  封装音轨:Dolby TrueHD 5.1 
豆瓣评分:7.5分

加入蓝光高清网,轻松下载最新4k资源

您需要 登录 才可以下载或查看,没有帐号?立即注册

x
简       介
! N1 Z- X" I8 G0 J& Z1 c, \- s# E0 ]- A% L; L9 ?; z
  本尼迪克特·康伯巴奇将出演冷战时期的英国“间谍”Greville Wynne,他将主演FilmNation投资的新片《铁皮木》(Ironbark),据悉风格会类似康伯巴奇也出演了的《锅匠,裁缝,士兵,间谍》,改编自Wynne的真实故事:他是一名英国商人,在冷战时期帮助CIA渗透了苏联的核武器项目,他和他的苏联消息源Oleg Penkovsky提供了终结古巴导弹危机的关键情报。该片将由Dominic Cooke(《在切瑟尔海滩上》)执导,他与康伯巴奇已合作过BBC剧集《空王冠》,初版剧本编剧是Tom O’Connor(《王牌保镖》)。
. H2 X$ v; k6 ^) U* l/ f
9 i  H7 s! S& F& }+ _1 v- ?- x

8 f& ?2 P. N+ I# ?+ [4 Z影片参数4 E! t0 e9 q+ T8 e1 x
铁幕行动(台) / 情报人员 / 铁皮木 / Ironbark/信使4K.The.Courier.2021.2160p.WEB-DL.x265.10bit.HDR.DDP5.1-4k电影信息5 b3 J' V- b% x, R3 `8 u  }
Video
  R+ ^1 {, L( H6 }; A* t9 ~9 w& iID : 1
3 @: i/ M* ]8 Z7 c2 ~Format : HEVC  b! g. v5 B! X6 z2 @* J2 B+ E
Format/Info : High Efficiency Video Coding* s& H$ f: @* _1 w; H
Format profile : Main 10@L5@Main
( X& J# h+ X9 m! K* K7 NHDR format : SMPTE ST 2086, HDR10 compatible
/ D* ~/ {' y' w( ^! ?  iCodec ID : V_MPEGH/ISO/HEVC
5 f: @' }, j( `# q  fDuration : 1 h 52 min
  |0 P' o6 S4 h: t% rBit rate : 14.6 Mb/s
" P% ^: I* h$ }Width : 3 840 pixels
1 L- t: ^4 F+ R4 q! \) W) T/ J" THeight : 2 160 pixels
; i6 \6 A. F+ L! {/ D* s8 TDisplay aspect ratio : 16:9
; [- x( m- F1 Z6 r, k% W5 E8 mFrame rate mode : Constant# F% [9 V$ ~# ]8 l! ?2 v
Frame rate : 23.976 (24000/1001) FPS
* E6 i2 A8 ~* i' |2 [. `* h# sColor space : YUV0 W: c7 T7 p) X, g$ _2 v( d$ Z
Chroma subsampling : 4:2:0 (Type 2)1 }: g" K% i2 a9 Z3 T. a2 S0 }
Bit depth : 10 bits
! y8 U, }$ |! b: h/ pBits/(Pixel*Frame) : 0.073
/ X, b; Q; M3 j4 ]8 |0 k- v2 rStream size : 11.4 GiB (98%), ]" V2 E& I6 f5 |* k0 K
Language : English: U, D7 A. D+ k& Y9 N; o: E, f: h
Default : Yes; k" m; j6 G7 t) x' g& o1 M
Forced : No0 Q0 w; A  x# `- o8 N; p# j
Color range : Limited
& r% X- q9 s2 f: OColor primaries : BT.2020
3 g) f0 Q' M5 sTransfer characteristics : PQ, n+ _5 y& m: V8 M: ?! c! e
Matrix coefficients : BT.2020 non-constant
+ e3 R  v5 X% }0 m0 @Mastering display color primaries : BT.2020
6 v% u( c0 |" ], p$ EMastering display luminance : min: 0.0001 cd/m2, max: 1000 cd/m29 q* }- R- {4 {: R/ q- R
Maximum Content Light Level : 863 cd/m2
/ _1 T$ n2 |9 @Maximum Frame-Average Light Level : 115 cd/m2
4 w0 l: m% S, [, j( W5 C! @6 s, `2 U, w1 \" Y

+ w& d& |8 x# V; T7 C# vAudio
) I( J  ?4 a8 g2 s7 U9 Y$ aID : 26 o' K0 C7 j3 \! I  {0 {
Format : E-AC-3: |2 D! I. P4 {1 E0 h+ q
Format/Info : Enhanced AC-39 o6 s7 n4 p2 L; H
Commercial name : Dolby Digital Plus
  r) V& K) i" r1 l" W2 ACodec ID : A_EAC3
/ w) N5 a6 Q& _6 T8 X4 ZDuration : 1 h 52 min8 A( _9 v' b: m1 |5 w& q: j
Bit rate mode : Constant
# v+ X/ d) `% H/ U8 S$ FBit rate : 256 kb/s1 b* s& g# a3 Q% a5 S
Channel(s) : 6 channels
' {2 D+ K' j3 {- K: YChannel layout : L R C LFE Ls Rs* N1 f2 o2 L6 _5 D8 p
Sampling rate : 48.0 kHz* s4 K' N# K$ y" J- ~9 F
Frame rate : 31.250 FPS (1536 SPF)# S/ _* u' J2 a+ K) ]& y
Compression mode : Lossy. w7 `7 j, Y* V/ Q4 F
Stream size : 205 MiB (2%)' r- ?1 S5 g! ^& z+ X) w$ ?
Title : English/ p/ Y. v7 D- U9 H. s) x! D5 l; z
Language : English
& l6 X3 j: X7 W- a) W: e3 QService kind : Complete Main
5 t7 \& M+ v2 I& ~( n# O4 u/ hDefault : No: s* c7 x6 n' J+ N+ ?( d. H( x
Forced : No  B2 a* Z6 N2 ~9 L# t& ^2 f

, j$ v) h5 w1 L& i8 f2 `
3 p0 H1 `. Q* p3 t6 J
Text #19 `4 {5 ?0 V$ F1 q+ Z0 B- x
ID : 3
4 X% r' w) I; nFormat : UTF-8
9 f! P6 N# S9 kCodec ID : S_TEXT/UTF8
  p2 I. e0 w1 k: F2 B, eCodec ID/Info : UTF-8 Plain Text
, D/ r; _# h# o8 L5 JDuration : 1 h 16 min0 s4 Z$ w  V" ]# ^, \. y* X
Bit rate : 6 b/s9 X7 r) G/ m8 s: K/ Q
Count of elements : 129
7 u4 w4 p% y! I2 s5 Q# q2 kStream size : 3.56 KiB (0%)
6 T9 \* X# `( \2 y6 t2 DTitle : FORCED
: p  ~& I3 u3 \" A4 XLanguage : English% `% v; Y) U6 }! \
Default : Yes
0 l' z% q# n$ `  {Forced : No9 w6 x( X6 o1 K- ~, i

5 n6 U3 q: ^5 `2 g8 T
1 |9 m- N1 z: R  i. J& ]
Text #2
5 Q1 q& ?% S1 jID : 4& n, b; Y7 x$ r
Format : UTF-8
8 I2 i! l8 `3 W$ P- o5 a6 ~Codec ID : S_TEXT/UTF8( x* P+ d3 }) {( _- }. ^0 S+ }
Codec ID/Info : UTF-8 Plain Text
$ K! r# j' z, M# z" xDuration : 1 h 43 min1 J* ]  f- K& u$ t" f) u5 a
Bit rate : 52 b/s% ]2 E, n' p1 J6 A! Z
Count of elements : 1247
; Q3 x: w, N2 O- K% |Stream size : 39.7 KiB (0%)( ~+ f( f. V1 Y7 c8 V- \7 E& o/ G
Language : English
# f# g* A6 o, S' c. jDefault : No
2 L! Y7 F4 e* bForced : No8 j" @  s7 K% u7 Q$ S# u

- ~5 D0 f- B! o: `" F8 c5 j
9 ]7 H6 z( V/ Z
Text #3/ r$ [3 y, q' C$ F6 o8 ?: J/ G# z7 ]
ID : 5% ?) w0 a1 \2 B8 c  t% a2 z5 G
Format : UTF-85 L5 n1 j: C8 y' _# p2 b/ h
Codec ID : S_TEXT/UTF8
% w" g5 B# B& L/ z& u3 Z: ~$ KCodec ID/Info : UTF-8 Plain Text" j# M+ [1 i; t2 c! b9 h+ Y$ T
Duration : 1 h 43 min7 N8 \: M5 ?2 P$ V+ y5 t
Bit rate : 59 b/s6 c9 q# E% F6 A; ^+ e
Count of elements : 1351+ P* j- \" `+ _2 t
Stream size : 44.8 KiB (0%)/ L7 E6 ~+ i: L9 d0 W2 j0 H8 m/ U
Language : English
7 P* _5 Q& l; c. n! S& g: lDefault : No3 Q( Z7 K' H2 u0 v4 D3 }
Forced : No
( s9 w& t0 m/ P' Q3 P  P

2 s! J: T8 }- e% R; c7 T- \8 ]蓝光高清网提示您  点击下方附件名即可开始下载
+ v. N* M% U+ M- S! ]7 v% q3 y' N1 z2 R" j7 ~0 @7 Y
0 f$ v; S8 _5 F
铁幕行动(台) / 情报人员 / 铁皮木 / Ironbark/信使4K.The.Courier.2021.2160p.WEB-DL.x265.10bit.HDR.DDP5.1-4K电影下载
- U8 S1 Q" P  ]% h" E
( m$ a* Q" }9 H. Z- N- y- e( n6 d- j信使4K.The.Courier.2021.2160p.WEB-DL.x265.10bit.HDR.DDP5.1【4K HDR 11.61GB】' e8 v+ x2 `0 {! j! L" g
信使4K.The.Courier.2021.2160p.WEB-DL.x265.10bit.HDR.DDP5.1-NOGRP.torrent (文件大小:58.72 KB)
加入蓝光高清网VIP会员  无限制下载本站所有资源---点这里

资源下载、资源播放、字幕使用、无法下载等常见问题---点这里
回复

使用道具 举报

精彩评论7

bengoben手机认证 发表于 2021-4-17 22:26:01 | 显示全部楼层
打卡来了~~
回复

使用道具 举报

吴家大少爷手机认证 发表于 2021-4-19 12:12:40 | 显示全部楼层
楼主辛苦了
回复 支持 反对

使用道具 举报

powerc手机认证 发表于 2021-4-21 12:00:19 | 显示全部楼层
还不错的一部电影 谢谢分享!
回复 支持 反对

使用道具 举报

ggang1 发表于 2021-4-22 10:19:32 | 显示全部楼层
; H  s4 |; _* u; w/ T  x1 C
谢楼主分享
回复 支持 反对

使用道具 举报

slj602手机认证 发表于 2021-4-23 14:20:44 | 显示全部楼层
楼主辛苦了
回复 支持 反对

使用道具 举报

slj602手机认证 发表于 2021-4-23 14:23:25 | 显示全部楼层
楼主发帖辛苦了
8 m6 w# `6 z2 M6 }- H0 k; h$ E
回复 支持 反对

使用道具 举报

slj602手机认证 发表于 2021-4-23 15:04:23 | 显示全部楼层
楼主辛苦了
. C0 D8 ?5 m  [: b- s
回复 支持 反对

使用道具 举报

您需要登录后才可以回帖 登录 | 立即注册

本版积分规则

烧友之家(蓝光高清网)本站内容部分由用户自主分享和转载自互联网,转载目的在于传递更多信息,并不代表本网赞同其观点和对其真实性负责。 如有侵权、违反国家法律政策行为,请联系我们,我们会第一时间及时清除和处理!
蓝光高清网 综合资讯平台
关注我们
  • 官方微信公众号
  • 扫码下载官方APP

X3.4 Licensed© 2001-2013 蓝光高清网 烧友之家APP |网站地图