游客您好
第三方账号登陆
  • 点击联系客服

    在线时间:9:00-18:00

    客服QQ

    1371333023

    电子邮件

    lanniao@1080pro.net
  • 烧友之家APP

    随时掌握烧友资讯

  • 扫描二维码

    关注微信公众号

推荐阅读
蓝鸟
未知星球 | 未知职业
  • 关注0
  • 粉丝2
  • 帖子93931
精选帖子
开启左侧

让他们说吧 4K.Let.Them.All.Talk.2020.2160p.AMZN.WEB-DL.x265.10bit.HDR10Plus.DDP5.1-4k电影下载—12.03 GB

[复制链接]
蓝鸟 发表于 2021-4-17 13:02:54 | 显示全部楼层 |阅读模式 打印 上一主题 下一主题
让他们说吧
上映时间:2020年
类型:喜剧 剧情 
地区:美国 
导演:史蒂文·索德伯格
主演:梅丽尔·斯特里普 / 嘉玛·陈 / 黛安·韦斯特 / 坎迪斯·伯根 / 卢卡斯·赫奇斯
画质标准:4K HDR  封装音轨:Dolby TrueHD 5.1 
豆瓣评分:6.5分

加入蓝光高清网,轻松下载最新4k资源

您需要 登录 才可以下载或查看,没有帐号?立即注册

x
简       介! l2 k8 I, t4 s+ t# j

, s5 a: x+ U, O' d9 v  某知名小说家(斯特里普饰)要到英国去领奖,她的两位老朋友(坎迪斯·伯根和黛安·韦斯特饰)和侄子(卢卡斯·赫奇斯饰)与她一起乘船出行,在船上,大家掀起了一场充满回忆、遗憾和辩论的狂欢,她的侄子还跟她的助理(嘉玛·陈饰)培养了亲密关系。6 v0 @% L- y3 g5 u- m

0 N4 }) m$ O" F0 ]6 F
/ ~- d+ W/ ]( Z  D! P0 ?
影片参数) P, u8 ^+ P9 M$ k) ?
畅所欲言/让他们说吧4K.Let.Them.All.Talk.2020.2160p.AMZN.WEB-DL.x265.10bit.HDR10Plus.DDP5.1-4k电影信息
# [% j/ t+ Q* L9 x( xVideo
; \  Y5 F# j4 o) o* dID : 1! v& Q! a+ n. X, L
Format : HEVC: b% ?! _8 S; L* U
Format/Info : High Efficiency Video Coding
3 I- l* o! b3 HFormat profile : Main 10@L5@Main
/ y  Z6 S, t7 d- `3 A& r! UHDR format : SMPTE ST 2094 App 4, Version 1, HDR10+ Profile B compatible
+ F+ K# P9 r) S3 z: V+ QCodec ID : V_MPEGH/ISO/HEVC
7 k3 k; m8 w! K; N% jDuration : 1 h 52 min
& K6 S$ d$ h2 T, m( b, }2 FBit rate : 14.6 Mb/s5 H2 h; g4 }- L# X1 @
Width : 3 840 pixels4 M& ?0 c1 E9 I4 [+ q- N
Height : 1 600 pixels
' q. t+ m. N+ X$ b5 \3 UDisplay aspect ratio : 2.40:1
; M- p9 @9 X, ], IFrame rate mode : Constant+ F: j+ [: e: \9 Y5 `
Frame rate : 23.976 (24000/1001) FPS
) x3 [9 P5 z; e% `% t* FColor space : YUV
8 t; k$ J$ w3 aChroma subsampling : 4:2:0. d" z% k6 S1 z5 t
Bit depth : 10 bits
3 a+ {. n, `' l- i! p+ H& ]# @1 VBits/(Pixel*Frame) : 0.099  {5 C5 F3 o$ u, Y9 Q
Stream size : 11.5 GiB (96%)7 M% z' I! j! U% |- W
Default : Yes
5 W# a/ O, z3 K3 E( v% H( y2 M& j9 iForced : No# m, k( W8 t3 ]. E- _
Color range : Limited) @. k( p0 i6 n6 P
Color primaries : BT.2020, P4 r7 F! @& y. X, L4 U; U( Z
Transfer characteristics : PQ; c* x2 E/ d2 G( p# Z" T8 b
Matrix coefficients : BT.2020 non-constant
) F6 o5 M5 q) [" r; XMastering display color primaries : BT.20209 ~/ T6 E# M: z$ k$ k
Mastering display luminance : min: 0.0001 cd/m2, max: 1000 cd/m29 S/ w& W  |* g0 N- B: [$ n5 p7 h
Maximum Content Light Level : 434 cd/m2
$ z) h7 T( p2 e' }. }; sMaximum Frame-Average Light Level : 90 cd/m2
; ~2 @% p: V6 p% B& O. Z; P% J% @

3 v: t- s+ \, l# W' \4 ^  gAudio
) h6 D& y' J7 q, c- c$ ^- L8 `ID : 2
2 {: t$ l6 ]) U  z3 s% KFormat : E-AC-3* s$ m4 k# A6 n# h$ c
Format/Info : Enhanced AC-3
* U) Z6 W9 ]) ^; N$ HCommercial name : Dolby Digital Plus
$ t* t6 r& S$ v0 k/ ]  q' w+ |Codec ID : A_EAC3- B& \& \. ~" K6 }/ P; n) ]1 k
Duration : 1 h 52 min
: R  o4 h; u5 I* t5 R* E- [0 PBit rate mode : Constant
/ L/ |* b2 B# O+ hBit rate : 640 kb/s
* H, `* h4 S7 d+ n; D. G' n1 TChannel(s) : 6 channels
& r/ l  L: c# ]5 q) CChannel layout : L R C LFE Ls Rs& m  G; I. S0 i
Sampling rate : 48.0 kHz
- Z" ^* |; e9 \5 Y* A# z& r, \Frame rate : 31.250 FPS (1536 SPF)" ]& k( G# V( e. s
Compression mode : Lossy
3 @" y- }2 O. B4 cStream size : 517 MiB (4%)' o/ p1 n6 W( ?! r5 b6 r+ ?: b9 i" E% c
Title : English0 W- Z+ t, |+ c
Language : English: |7 ~7 F# j4 d# ?9 g  r5 u
Service kind : Complete Main
1 P# l! _2 U0 `# P. sDefault : Yes3 j% f5 N  `( {. [
Forced : No1 T+ G1 D0 q0 b

/ u  a' P) |# @5 D
, e1 ~+ {7 n. I4 f
Text #11 [& p; z2 s( @& `. F9 x! |
ID : 33 y, F4 \* l: T/ {: G# ~
Format : UTF-8
) M5 T' N! z/ x& k, s) |Codec ID : S_TEXT/UTF8
% d( U( N! d4 m# r2 C$ ~- ^Codec ID/Info : UTF-8 Plain Text
& o5 w) @2 Q2 E- K  g2 PDuration : 1 h 49 min
" @+ k0 W6 j% V/ [Bit rate : 79 b/s' |7 \- Q$ ^$ D  a
Count of elements : 2043
% b  W+ f  P0 H# iStream size : 63.8 KiB (0%)$ K, g6 K$ I3 O+ z" W
Title : English
) e/ S* ^2 N1 uLanguage : English
$ o) r6 N# e! w' n3 wDefault : No/ G0 v3 j/ N' @; c7 M6 E9 ^( w
Forced : No
& U) ]2 G$ t; |' N2 K
5 ?5 d- |4 G  q
, X  _/ |9 ]' Z2 F9 n2 r
Text #2
& x7 i1 G7 a3 x' r$ z6 @2 yID : 4
# U+ W7 ~  [* x: L4 ?. ?0 m0 EFormat : UTF-8
, R& c% q% g. L( KCodec ID : S_TEXT/UTF8
0 c* N: W4 s# Q  I7 l( t' VCodec ID/Info : UTF-8 Plain Text
% S% b7 x) ~: U' @6 }Duration : 1 h 52 min
/ D1 C, P( q4 f, {Bit rate : 57 b/s
- A3 ]8 c& _+ j# ]3 ]Count of elements : 14391 j1 f' o. N' x9 B
Stream size : 47.4 KiB (0%)
) W  ]) I* W7 F7 ?; x8 G+ S; s9 ETitle : European Spanish- K" \% {! |/ k# I
Language : Spanish
" e7 @, s& v- y4 ^% ]4 z0 H) ?Default : No( m. K9 H5 C; e; z
Forced : No
# J5 i7 G+ Y" n- S' |
+ b5 p: f% Q- s* E0 k
蓝光高清网提示您  点击下方附件名即可开始下载" a# s3 i& S" W$ v) W5 x. V
$ {5 d( i7 v5 B
( \  x& W  Q0 c9 M. A+ v4 |
畅所欲言/让他们说吧4K.Let.Them.All.Talk.2020.2160p.AMZN.WEB-DL.x265.10bit.HDR10Plus.DDP5.1-4K电影下载
2 `/ s+ E! o7 ^, h" O$ f9 s: m3 P5 x- [9 n, b9 R; c
让他们说吧4K.Let.Them.All.Talk.2020.2160p.AMZN.WEB-DL.x265.10bit.HDR10Plus.DDP5.1【4K HDR 12.03 GB】
% D! e4 c- Z% I  h0 U: x 让他们说吧4K.Let.Them.All.Talk.2020.2160p.AMZN.WEB-DL.x265.10bit.HDR10Plu.torrent (文件大小:60.81 KB)
加入蓝光高清网VIP会员  无限制下载本站所有资源---点这里

资源下载、资源播放、字幕使用、无法下载等常见问题---点这里
回复

使用道具 举报

精彩评论3

a左岸手机认证 发表于 2021-4-18 12:44:10 | 显示全部楼层
多谢分享!!!!!!!!!!!!!!!!!!!!!!!$ [& w$ z9 M  D2 x. O) T, J$ `
回复

使用道具 举报

西木手机认证 发表于 2021-4-23 13:48:19 | 显示全部楼层
感谢楼主分享
回复 支持 反对

使用道具 举报

slj602手机认证 发表于 2021-4-23 14:22:27 | 显示全部楼层
楼主发帖辛苦了
9 ?' f6 V& }' F1 S$ `/ n; z! U) m
回复 支持 反对

使用道具 举报

您需要登录后才可以回帖 登录 | 立即注册

本版积分规则

烧友之家(蓝光高清网)本站内容部分由用户自主分享和转载自互联网,转载目的在于传递更多信息,并不代表本网赞同其观点和对其真实性负责。 如有侵权、违反国家法律政策行为,请联系我们,我们会第一时间及时清除和处理!
蓝光高清网 综合资讯平台
关注我们
  • 官方微信公众号
  • 扫码下载官方APP

X3.4 Licensed© 2001-2013 蓝光高清网 烧友之家APP |网站地图