游客您好
第三方账号登陆
  • 点击联系客服

    在线时间:9:00-18:00

    客服QQ

    1371333023

    电子邮件

    lanniao@1080pro.net
  • 烧友之家APP

    随时掌握烧友资讯

  • 扫描二维码

    关注微信公众号

推荐阅读
蓝鸟
未知星球 | 未知职业
  • 关注0
  • 粉丝2
  • 帖子93931
精选帖子
开启左侧

半血缘兄弟 4K.Half.Brothers.2020.2160p.AMZN.WEB-DL.x265.10bit.HDR10Plus.DTS-HD.MA.5.1-4k电影下载—12.63 GB

[复制链接]
蓝鸟 发表于 2021-4-18 19:17:07 | 显示全部楼层 |阅读模式 打印 上一主题 下一主题
半血缘兄弟
上映时间:2020年
类型:喜剧 
地区:美国 
导演:卢克·格林菲德
主演:路易斯·赫拉尔多·门德斯 / 何塞·祖尼加 / 康纳·戴尔·里奥 / 文森特·斯帕诺 / 希拉·斯科特·阿斯托夫
画质标准:4K HDR  封装音轨:DTS-HD.MA 5.1 
豆瓣评分:6.0分

加入蓝光高清网,轻松下载最新4k资源

您需要 登录 才可以下载或查看,没有帐号?立即注册

x
简       介
2 `- h$ \) L! C& x7 t! r& ~+ ^6 Y: i3 s0 }4 t$ d
  影片讲述两个同父异母的兄弟揭开垂死父亲的秘密时,他们彼此的关系也受到了考验。* V: S9 E; W3 M! Q- u

5 N2 Z$ U+ k4 c" l$ a

2 Y/ r. l9 z" g  z4 [$ ?影片参数
5 N* N! d- n% Z8 A. t+ d6 D
半血缘兄弟4K.Half.Brothers.2020.2160p.AMZN.WEB-DL.x265.10bit.HDR10Plus.DTS-HD.MA.5.1-4k电影信息% h, ]  w% q" v# }* h
Video
8 e, G% x! ?8 {% W9 u7 ]ID : 1" p1 g- C0 `9 T) C, {) b8 G
Format : HEVC) ~; r/ h% |5 i4 i5 `) A
Format/Info : High Efficiency Video Coding
" H- Y; V, c0 h; ^Format profile : Main 10@L5@Main
* F' r( X4 g  b, R; Q5 iHDR format : SMPTE ST 2094 App 4, Version 1, HDR10+ Profile B compatible- t" Z& V+ b" A4 D, c- X
Codec ID : V_MPEGH/ISO/HEVC2 ^9 l2 f/ [5 w4 a8 C$ C3 t
Duration : 1 h 36 min- q* q8 i2 z+ ^  h
Bit rate : 14.9 Mb/s
+ i2 \: ]" n8 j6 r4 N8 dWidth : 3 840 pixels
2 G* h9 S3 _) O8 c, e" B/ ZHeight : 1 600 pixels- K* K+ f, H, }) V7 x* Q8 ]
Display aspect ratio : 2.40:1' `5 z# s+ u" d9 J  f) c( t
Frame rate mode : Constant5 \* r% m: O9 e8 m
Frame rate : 23.976 (24000/1001) FPS) F4 H" P9 Q6 J1 ~  @4 s% b
Color space : YUV
. k- [; U( r$ d0 ^$ U9 T2 c+ SChroma subsampling : 4:2:02 X4 \7 N7 J$ o& U: U
Bit depth : 10 bits
/ g! @* j8 B$ z1 A8 o% ?Bits/(Pixel*Frame) : 0.101
) v" I' y6 F8 g- i8 g# ?6 oStream size : 10.1 GiB (80%)
. g3 Q: F6 S: Q4 s4 H- [3 mLanguage : English+ ?" Y! R0 o) b
Default : Yes
5 }' T3 I( f$ d; e( c8 Q4 xForced : No2 `- \( T4 U+ J  {: G$ A9 y
Color range : Limited
1 K2 ^' _; V- n; d) AColor primaries : BT.2020
' Q3 `- p7 H  F/ f) l! o* ^Transfer characteristics : PQ5 y  v! y9 y9 h2 N9 g  M* }0 L0 t/ _
Matrix coefficients : BT.2020 non-constant" C; s8 b6 ]5 u( w
Mastering display color primaries : Display P30 m) L5 Y  d2 j* k: ^$ l, Q
Mastering display luminance : min: 0.0050 cd/m2, max: 1000 cd/m2
; G0 \5 m  Y7 q0 a0 vMaximum Content Light Level : 1000 cd/m2
; e. x  B+ m2 R) [4 t- EMaximum Frame-Average Light Level : 147 cd/m2
( c7 K% j+ ]3 v/ ~& b' C5 D- U
3 z1 |7 D; m3 |. a6 \- b  J
- Q/ A+ T  ~' i, Q
Audio #1
8 W) u4 M/ }+ _$ y, N! n; MID : 2% |7 c/ e/ Q: p1 a, L
ID in the original source medium : 4352 (0x1100)0 o  \, C- U4 }6 l$ t) H( @
Format : DTS XLL: Q( p9 t+ K* k, R' g) F' I
Format/Info : Digital Theater Systems2 X1 M  R3 S5 @- V3 E( [
Commercial name : DTS-HD Master Audio
& S; Q8 u  n1 ACodec ID : A_DTS
# N$ i9 y" J4 a8 I9 e- O% Y% PDuration : 1 h 35 min6 B9 [  z! U9 P) i# h
Bit rate mode : Variable
. r' n! ]1 s% y1 c6 K# k' o' uBit rate : 3 200 kb/s; ^: G7 ?9 v3 p- z' P( t6 o
Channel(s) : 6 channels
4 e/ \! X# V" _; c. p6 U/ WChannel layout : C L R Ls Rs LFE
" q) p+ |: J2 t) E8 hSampling rate : 48.0 kHz
8 i7 T. v! z3 }; ^" DFrame rate : 93.750 FPS (512 SPF)% P' O' |8 }' d* q5 \( V
Bit depth : 24 bits
% @- l2 d; L2 z+ cCompression mode : Lossless2 U) ~0 k  m" V
Delay relative to video : 24 s 680 ms
+ [$ Z1 J" S/ G- WStream size : 2.15 GiB (17%)# i8 F7 ^8 _* c' f2 c2 G
Title : DTS-HD MA 5.1
3 l* E) l* X0 @; Q: d, YLanguage : English' ^1 O, F  C0 j5 `# `  q: }- B4 c
Default : Yes
6 Z- I! x! e/ A+ O! _Forced : No9 f: \: ?# t- B2 f$ G" _5 ~1 H
Original source medium : Blu-ray
5 ?2 l( [; T$ A5 t$ V. U0 G8 f' ?7 f' a& i
" [! T: f3 ~( s  O% e& n- c
Audio #2, w4 [. k2 G+ \3 `0 q- Q
ID : 33 j5 Y& G- g9 D4 U. V/ D- V5 m/ n
Format : E-AC-3! L8 O3 n' O( T0 z6 V- |
Format/Info : Enhanced AC-3
2 R! C, u2 X# N% V1 j3 g2 `Commercial name : Dolby Digital Plus# p  c+ w7 J. i6 O& K$ P( k7 O
Codec ID : A_EAC3% [5 Z3 [: `8 B% }. M2 a- V+ s( L
Duration : 1 h 36 min2 }% p* _& E$ G: X' E
Bit rate mode : Constant& D9 j' ]% b3 S% I- f+ v: g' Y4 J
Bit rate : 640 kb/s/ z3 k* o5 r5 K5 N9 x! M9 M* Y
Channel(s) : 6 channels: d/ c0 f0 d' z( T
Channel layout : L R C LFE Ls Rs2 e! D# c; t4 e7 r6 [1 z' g
Sampling rate : 48.0 kHz
; Y3 A6 {) h2 v( J8 p  XFrame rate : 31.250 FPS (1536 SPF)
' n9 e3 }& _7 b$ s: xCompression mode : Lossy
/ T# X  w9 p$ ~# e* |! eStream size : 441 MiB (3%)
4 w9 X5 B3 }# i+ N5 UTitle : DDP 5.1
( j, Z! b8 m; d  |/ q. E4 KLanguage : English& ~" T7 {) O8 M% p$ K5 D+ S( E
Service kind : Complete Main
! Q- a0 i2 `* _% W: x$ @Default : No- y% W' E1 Z3 b+ |) x
Forced : No
7 Z- T2 I: M% Q8 w2 Q* ]: e8 S0 Q4 F6 f& K
. x6 i& E% z% c1 _. ^8 X- y; `
Text
. M7 P) O" X, r; S# FID : 4
+ E$ }3 @- U4 S: QFormat : UTF-8
( w: P# t# E4 U$ V6 t3 KCodec ID : S_TEXT/UTF8
. @4 _8 B, U% y! B" qCodec ID/Info : UTF-8 Plain Text4 ?" Z$ c/ j% I" T) f3 i" m# n
Duration : 1 h 35 min
+ ]9 ^: l. T, s: M+ J2 ZBit rate : 69 b/s
: N0 C" c3 K" Z: ZCount of elements : 1709
. j6 i- @! k3 {Stream size : 48.7 KiB (0%)
) M9 K, ~1 M! E4 c) VTitle : English5 H6 Q1 r1 a& R, ?1 F, [
Language : English
) f3 b& k: b) P$ NDefault : Yes
" }, r# m2 V0 gForced : No
0 i) V) [4 z$ c1 F5 f
" o9 v9 ^. u4 B0 p

- N; E- G9 P3 OMenu! b0 s7 o, K8 }6 B) S6 `
00:00:00.000 : en:Chapter 01
9 S$ }8 C2 h. Q$ C) z3 M00:05:47.472 : en:Chapter 022 G8 H+ h5 t7 @) \
00:09:08.548 : en:Chapter 037 ~6 C8 c5 p0 t# l! s, I
00:13:32.019 : en:Chapter 044 J' k: n, R' J
00:16:08.133 : en:Chapter 05+ w! H0 U' l+ f+ T" b; J& Q7 ]  l
00:20:23.931 : en:Chapter 06
! A1 t) C  q8 H. h: L, Z8 y00:24:32.721 : en:Chapter 07
+ {" x- q: p/ y7 O2 w2 e% `& D; Q00:30:16.606 : en:Chapter 08
: X( [7 j* K5 J$ }1 I" K00:32:55.056 : en:Chapter 099 s, w. {! ~5 d7 r1 ^* v
00:40:37.852 : en:Chapter 10& K5 \7 \0 K! H( Y" }
00:44:17.988 : en:Chapter 11# A$ e5 A1 K$ G/ l& y* ?
00:46:43.842 : en:Chapter 12
: N( w8 d0 O& b2 d, h& C00:53:51.228 : en:Chapter 13  m, p6 P% K$ F
00:59:59.637 : en:Chapter 145 R' F0 U2 W7 W& E/ N2 R. G* Y
01:06:02.625 : en:Chapter 15
# r# l. ?1 O# c5 k$ L01:10:14.627 : en:Chapter 16
! }  ]6 _% L, Q$ u  W6 b2 I01:14:45.522 : en:Chapter 17
, x) W- E. V5 J: p* ~: ^3 O01:18:21.154 : en:Chapter 184 X% ?" L' M' s0 o0 a
01:25:56.484 : en:Chapter 19
" ]' @: G7 L2 e6 \+ p6 Q! ^& U( G+ q01:31:21.559 : en:Chapter 20
+ B& J2 @/ D9 d! m# {+ t  V# a
蓝光高清网提示您  点击下方附件名即可开始下载
& k2 U' k& E. b: A, L. w* _7 y

1 M8 T! ]$ g- j" g$ |! W$ L7 {半血缘兄弟4K.Half.Brothers.2020.2160p.AMZN.WEB-DL.x265.10bit.HDR10Plus.DTS-HD.MA.5.1-4K电影下载
4 t/ l8 [+ w$ V. z+ `5 F$ c& L% V( ~8 I- c7 V! W
半血缘兄弟4K.Half.Brothers.2020.2160p.AMZN.WEB-DL.x265.10bit.HDR10Plus.DTS-HD.MA.5.1 【4K HDR 12.63】
: n! O9 m' q* M0 a 半血缘兄弟4K.Half.Brothers.2020.2160p.AMZN.WEB-DL.x265.10bit.HDR10Plus.DT.torrent (文件大小:63.84 KB)
加入蓝光高清网VIP会员  无限制下载本站所有资源---点这里

资源下载、资源播放、字幕使用、无法下载等常见问题---点这里
回复

使用道具 举报

精彩评论3

ggang1 发表于 2021-4-19 11:50:16 | 显示全部楼层
谢楼主分享
回复 支持 反对

使用道具 举报

bengoben手机认证 发表于 2021-4-22 22:08:44 | 显示全部楼层
谢楼主分享!!!
回复 支持 反对

使用道具 举报

powerc手机认证 发表于 2021-4-25 11:46:07 | 显示全部楼层
不错的资源 谢谢!
回复 支持 反对

使用道具 举报

您需要登录后才可以回帖 登录 | 立即注册

本版积分规则

烧友之家(蓝光高清网)本站内容部分由用户自主分享和转载自互联网,转载目的在于传递更多信息,并不代表本网赞同其观点和对其真实性负责。 如有侵权、违反国家法律政策行为,请联系我们,我们会第一时间及时清除和处理!
蓝光高清网 综合资讯平台
关注我们
  • 官方微信公众号
  • 扫码下载官方APP

X3.4 Licensed© 2001-2013 蓝光高清网 烧友之家APP |网站地图