[动作] 死亡游戏 Game.Of.Death.1978.UNCUT.1080p.BluRay.x264-TUSAHD 8.07GB

[复制链接]
蓝鸟VIP会员 永久VIP 发表于 2019-8-22 00:22:51 | 显示全部楼层 |阅读模式 打印 上一主题 下一主题

马上注册,轻松下载,海量资源,让你轻松玩转社区。

您需要 登录 才可以下载或查看,没有帐号?立即注册

x


◎译  名 死亡游戏
◎片  名 Game of Death
◎年  代 1978
◎国  家 香港/美国
◎类  别 动作/犯罪/剧情/惊悚
◎语  言 英语/汉语普通话/粤语
◎上映日期 1978-03-23
◎IMDb评分  6.1/10 from 11,308 users
◎IMDb链接  http://www.imdb.com/title/tt0077594/
◎豆瓣评分 7.7/10 from 4,241 users
◎豆瓣链接 http://movie.douban.com/subject/1308456/
◎片  长 85 分钟/Germany: 92 分钟/Hong Kong: 103 分钟(original premiere)/Hong Kong: 125 分钟/Hong Kong: 54 分钟(current existing footage)/Japan: 115 分钟/Japan: 40 分钟(2000 incomplete version)/USA: 100 分钟/USA: 110 分钟(original premiere)/USA: 35 分钟(2000 incomplete version)
◎导  演 Robert Clouse
◎主  演 李小龙
      Colleen Camp
      洪金宝
◎简  介
  动作片明星比利(李小龙 唐龙 饰)最近频频遭遇骚扰,原来邪恶集团头领兰德博士有意掌控在澳门举办的国际搏击大赛,希望比利能够入伙,然而比利的拒绝令他们怒火中烧。比利与歌星女友安一同出行,被兰德一伙截路殴打,比利决定奋起反抗,由于担心女友的安危只得忍耐。不久,比利在片场遭暗算,面部受创,随即将计就计放出死亡消息麻痹兰德。在搏击比赛期间,比利潜入澳门,将兰德的选手击溃,使其计划破产。随后比利孤身一人前往兰德团伙核心大楼,在层层挑战中讨伐仇敌……
  本片在李小龙去世后用他生前拍摄的片段补拍而成,大部分镜头中比利这一角色由唐龙扮演。
Video
ID                                       : 1
Format                                   : AVC
Format/Info                              : Advanced Video Codec
Format profile                           : [email protected]
Format settings, CABAC                   : Yes
Format settings, ReFrames                : 10 frames
Codec ID                                 : V_MPEG4/ISO/AVC
Duration                                 : 1h 40mn
Bit rate                                 : 10 000 Kbps
Width                                    : 1 916 pixels
Height                                   : 816 pixels
Display aspect ratio                     : 2.35:1
Frame rate mode                          : Constant
Frame rate                               : 23.976 fps
Color space                              : YUV
Chroma subsampling                       : 4:2:0
Bit depth                                : 8 bits
Scan type                                : Progressive
Bits/(Pixel*Frame)                       : 0.267
Stream size                              : 6.85 GiB (85%)
Title                                    : Bruce.Lee.Game.Of.Death.1978.Uncut.DTS-HD.DTS.1080p.BluRay.x264.HQ-TUSAHD
Writing library                          : x264 core 114 r1924 08d04a4
Encoding settings                        : cabac=1 / ref=10 / deblock=1:0:0 / analyse=0x3:0x133 / me=tesa / subme=10 / psy=1 / psy_rd=1.00:0.00 / mixed_ref=0 / me_range=16 / chroma_me=1 / trellis=2 / 8x8dct=1 / cqm=0 / deadzone=21,11 / fast_pskip=1 / chroma_qp_offset=-2 / threads=9 / sliced_threads=0 / nr=0 / decimate=1 / interlaced=0 / constrained_intra=0 / bframes=10 / b_pyramid=0 / b_adapt=2 / b_bias=0 / direct=1 / weightb=1 / open_gop=0 / weightp=2 / keyint=240 / keyint_min=24 / scenecut=40 / intra_refresh=0 / rc_lookahead=40 / rc=2pass / mbtree=1 / bitrate=10000 / ratetol=1.0 / qcomp=0.60 / qpmin=0 / qpmax=69 / qpstep=4 / cplxblur=20.0 / qblur=0.5 / vbv_maxrate=25000 / vbv_bufsize=25000 / nal_hrd=none / ip_ratio=1.40 / aq=1:1.00
Language                                 : English
Default                                  : Yes
Forced                                   : No
Audio
ID                                       : 2
Format                                   : DTS
Format/Info                              : Digital Theater Systems
Mode                                     : 16
Format settings, Endianness              : Big
Codec ID                                 : A_DTS
Duration                                 : 1h 40mn
Bit rate mode                            : Constant
Bit rate                                 : 1 509 Kbps
Channel(s)                               : 6 channels
Channel positions                        : Front: L C R, Side: L R, LFE
Sampling rate                            : 48.0 KHz
Bit depth                                : 24 bits
Compression mode                         : Lossy
Stream size                              : 1.06 GiB (13%)
Title                                    : English DTS
Language                                 : English
Default                                  : Yes
Forced                                   : No
Menu
00:00:00.000                             : en:00:00:00.000
00:03:27.832                             : en:00:03:27.832
00:06:27.595                             : en:00:06:27.595
00:11:51.669                             : en:00:11:51.669
00:15:17.124                             : en:00:15:17.124
00:19:31.837                             : en:00:19:31.837
00:24:11.241                             : en:00:24:11.241
00:30:06.012                             : en:00:30:06.012
00:34:54.467                             : en:00:34:54.467
00:39:17.605                             : en:00:39:17.605
00:45:38.068                             : en:00:45:38.068
00:50:23.562                             : en:00:50:23.562
00:56:29.386                             : en:00:56:29.386
01:02:15.523                             : en:01:02:15.523
01:06:07.922                             : en:01:06:07.922
01:11:59.898                             : en:01:11:59.898
01:19:51.119                             : en:01:19:51.119
01:27:41.965                             : en:01:27:41.965
01:32:53.943                             : en:01:32:53.943
01:37:28.843                             : en:01:37:28.843

精彩剧照


                                       

蓝光高清网提示您 点击下方附件名称 马上开始下载



温馨提示:
本站资源优先使用迅雷下载,迅雷会员下载,速度基本可以跑满宽带
如果遇到无资源或者版权问题无法下载,推荐使用115网盘离线下载(点击查看115网盘离线下载教程


  • 该资源需要您回复以后 刷新网页进行下载操作

  • 1、Game.Of.Death.1978.UNCUT.1080p.BluRay.x264-TUSAHD.torrent 81KB 已下载 0 次

加入蓝光高清网VIP会员  无限制下载本站所有资源---点此加入

资源下载、资源播放、字幕使用、无法下载等常见问题---点这里

回复

使用道具 举报

懒得打字嘛,点击右侧快捷回复
高级模式
B Color Image Link Quote Code Smilies 上传

本版积分规则

关注0

粉丝0

帖子66311

发布主题
最新电影 论坛
广告位
联系我们
点击这里联系客服

服务时间:
周一到周日8:00-23:30

  • 打开微信扫一扫
    关注公众号

  • 手机QQ扫一扫
    添加客服

Archiver手机版蓝光高清网 ( 渝ICP备18006373号-2 )|网站地图

Powered by Discuz! X3.4  © 2001-2013 Comsenz Inc.