[动作] 死亡之塔/死亡塔 Game.Of.Death.2.1981.UNCUT.1080p.BluRay.x264-TUSAHD 7.72GB

[复制链接]
蓝鸟VIP会员 永久VIP 发表于 2019-8-22 00:25:19 | 显示全部楼层 |阅读模式 打印 上一主题 下一主题

马上注册,轻松下载,海量资源,让你轻松玩转社区。

您需要 登录 才可以下载或查看,没有帐号?立即注册

x


◎译  名 死亡之塔
◎片  名 死亡塔
◎年  代 1981
◎国  家 香港
◎类  别 动作/悬疑
◎语  言 粤语/普通话
◎上映日期 1981-03-21
◎IMDb评分  5.2/10 from 1,937 users
◎IMDb链接  http://www.imdb.com/title/tt0076709/
◎豆瓣评分 6.5/10 from 1,092 users
◎豆瓣链接 http://movie.douban.com/subject/1784747/
◎片  长 Hong Kong: 86 分钟
◎导  演 吴思远 / 洪金宝 / 元奎
◎主  演 李小龙
      乔宏
      黄正利
      李海生
      元彪
◎简  介
  振强(李小龙饰)在调查世交秦谷(黄正利饰)暴毙时意外身亡,习武多年的胞弟振国(唐龙饰),向师父(乔宏饰)请求下山查明真相。国查得秦谷死前曾到死亡古堡,堡主武功高强,很多高手都横死於他手下,而死亡塔重重机关背后,隐藏了秦谷暴毙之真相……
Video
ID                                       : 1
Format                                   : AVC
Format/Info                              : Advanced Video Codec
Format profile                           : [email protected]
Format settings, CABAC                   : Yes
Format settings, ReFrames                : 10 frames
Codec ID                                 : V_MPEG4/ISO/AVC
Duration                                 : 1h 35mn
Bit rate                                 : 10 000 Kbps
Width                                    : 1 916 pixels
Height                                   : 816 pixels
Display aspect ratio                     : 2.35:1
Frame rate mode                          : Constant
Frame rate                               : 23.976 fps
Color space                              : YUV
Chroma subsampling                       : 4:2:0
Bit depth                                : 8 bits
Scan type                                : Progressive
Bits/(Pixel*Frame)                       : 0.267
Stream size                              : 6.55 GiB (85%)
Title                                    : Bruce.Lee.Tower.Of.Death.1981.Uncut.DTS-HD.DTS.1080p.BluRay.x264.HQ-TUSAHD
Writing library                          : x264 core 114 r1924 08d04a4
Encoding settings                        : cabac=1 / ref=10 / deblock=1:0:0 / analyse=0x3:0x133 / me=tesa / subme=10 / psy=1 / psy_rd=1.00:0.00 / mixed_ref=0 / me_range=16 / chroma_me=1 / trellis=2 / 8x8dct=1 / cqm=0 / deadzone=21,11 / fast_pskip=1 / chroma_qp_offset=-2 / threads=9 / sliced_threads=0 / nr=0 / decimate=1 / interlaced=0 / constrained_intra=0 / bframes=10 / b_pyramid=0 / b_adapt=2 / b_bias=0 / direct=1 / weightb=1 / open_gop=0 / weightp=2 / keyint=240 / keyint_min=24 / scenecut=40 / intra_refresh=0 / rc_lookahead=40 / rc=2pass / mbtree=1 / bitrate=10000 / ratetol=1.0 / qcomp=0.60 / qpmin=0 / qpmax=69 / qpstep=4 / cplxblur=20.0 / qblur=0.5 / vbv_maxrate=25000 / vbv_bufsize=25000 / nal_hrd=none / ip_ratio=1.40 / aq=1:1.00
Language                                 : English
Default                                  : Yes
Forced                                   : No
Audio
ID                                       : 2
Format                                   : DTS
Format/Info                              : Digital Theater Systems
Mode                                     : 16
Format settings, Endianness              : Big
Codec ID                                 : A_DTS
Duration                                 : 1h 35mn
Bit rate mode                            : Constant
Bit rate                                 : 1 509 Kbps
Channel(s)                               : 6 channels
Channel positions                        : Front: L C R, Side: L R, LFE
Sampling rate                            : 48.0 KHz
Bit depth                                : 24 bits
Compression mode                         : Lossy
Stream size                              : 1.01 GiB (13%)
Title                                    : English DTS
Language                                 : English
Default                                  : Yes
Forced                                   : No
Text #1
ID                                       : 3
Format                                   : VobSub
Muxing mode                              : zlib
Codec ID                                 : S_VOBSUB
Codec ID/Info                            : The same subtitle format used on DVDs
Title                                    : English
Language                                 : English
Default                                  : Yes
Forced                                   : No
Text #2
ID                                       : 4
Format                                   : VobSub
Muxing mode                              : zlib
Codec ID                                 : S_VOBSUB
Codec ID/Info                            : The same subtitle format used on DVDs
Title                                    : Chinese
Language                                 : Chinese
Default                                  : No
Forced                                   : No
Menu
00:00:00.000                             : en:00:00:00.000
00:02:38.992                             : en:00:02:38.992
00:05:52.269                             : en:00:05:52.269
00:09:34.866                             : en:00:09:34.866
00:13:23.678                             : en:00:13:23.678
00:18:15.261                             : en:00:18:15.261
00:20:26.392                             : en:00:20:26.392
00:25:44.501                             : en:00:25:44.501
00:31:22.631                             : en:00:31:22.631
00:39:07.220                             : en:00:39:07.220
00:43:23.559                             : en:00:43:23.559
00:50:12.009                             : en:00:50:12.009
00:53:50.519                             : en:00:53:50.519
00:58:38.181                             : en:00:58:38.181
01:01:53.418                             : en:01:01:53.418
01:04:37.415                             : en:01:04:37.415
01:11:49.931                             : en:01:11:49.931
01:18:47.890                             : en:01:18:47.890
01:24:31.692                             : en:01:24:31.692
01:33:45.078                             : en:01:33:45.078

精彩剧照


                                       

蓝光高清网提示您 点击下方附件名称 马上开始下载



温馨提示:
本站资源优先使用迅雷下载,迅雷会员下载,速度基本可以跑满宽带
如果遇到无资源或者版权问题无法下载,推荐使用115网盘离线下载(点击查看115网盘离线下载教程


  • 该资源需要您回复以后 刷新网页进行下载操作

  • 1、Game.Of.Death.2.1981.UNCUT.1080p.BluRay.x264-TUSAHD.torrent 78KB 已下载 0 次

加入蓝光高清网VIP会员  无限制下载本站所有资源---点此加入

资源下载、资源播放、字幕使用、无法下载等常见问题---点这里

回复

使用道具 举报

懒得打字嘛,点击右侧快捷回复
高级模式
B Color Image Link Quote Code Smilies 上传

本版积分规则

关注0

粉丝0

帖子66703

发布主题
最新电影 论坛
广告位
联系我们
点击这里联系客服

服务时间:
周一到周日8:00-23:30

  • 打开微信扫一扫
    关注公众号

  • 手机QQ扫一扫
    添加客服

Archiver手机版蓝光高清网 ( 渝ICP备18006373号-2 )|网站地图

Powered by Discuz! X3.4  © 2001-2013 Comsenz Inc.