游客您好
第三方账号登陆
  • 点击联系客服

    在线时间:9:00-18:00

    客服QQ

    1371333023

    电子邮件

    lanniao@1080pro.net
  • 烧友之家APP

    随时掌握烧友资讯

  • 扫描二维码

    关注微信公众号

推荐阅读
蓝鸟
未知星球 | 未知职业
  • 关注0
  • 粉丝2
  • 帖子93936
精选帖子
开启左侧

蓝与黑 4K.Black.and.Blue.2019.2160p.WEB-DL.x265.10bit.HDR.DTS-HD.MA.5.1-4k电影下载—23.43 GB

[复制链接]
蓝鸟 发表于 2021-4-28 12:16:12 | 显示全部楼层 |阅读模式 打印 上一主题 下一主题
蓝与黑
上映时间:2019年
类型:动作 剧情 惊悚 犯罪 
地区:美国 
导演:德翁·泰勒
主演:娜奥米·哈里斯 / 弗兰克·格里罗 / 里德·斯科特 / 迈克·柯尔特 / 泰瑞斯·吉布森
画质标准:4K HDR  封装音轨:DTS-HD.MA 5.1 
豆瓣评分:6.5分

加入蓝光高清网,轻松下载最新4k资源

您需要 登录 才可以下载或查看,没有帐号?立即注册

x
简       介
( y6 l9 z) g, l
0 f' Q) q4 E" U- u# s  娜奥米·哈里斯将主演警探题材惊悚片[蓝与黑](Black And Blue,暂译),德翁·泰勒([假日惊魂])执导,彼得·A·道林([空中危机])操刀剧本。故事讲述一名新手警察(娜奥米饰)目睹了腐败官员谋杀一名毒贩的过程,而且她随身携带的摄像头录下了这一幕。她从这些腐败官员手里逃脱出来,陷入了被谋杀的危险境地。; E% f7 L5 v; r  W, [* q$ l
! ?9 o0 w& k4 G6 F8 B, ?4 ^+ s

1 z3 e  _  M4 |/ Z影片参数
8 E2 r/ H* h$ X  E. _
黑与蓝 / Exposure / 警網黑幕(台)/蓝与黑4K.Black.and.Blue.2019.2160p.WEB-DL.x265.10bit.HDR.DTS-HD.MA.5.1-4k电影信息$ }8 f3 C/ ]+ k7 Z5 S
Video+ `+ O$ r6 w+ S9 T/ d
ID : 15 V* T# H, y* h  u
Format : HEVC9 M( c- F0 k  ~1 e& n; d. v
Format/Info : High Efficiency Video Coding
- x# R3 O! E- R' |Format profile : Main 10@L5.2@High
; F( c* d& m$ }4 ~* \# ^HDR format : SMPTE ST 2086, HDR10 compatible
- H; |' v& N, E& B% e* OCodec ID : V_MPEGH/ISO/HEVC/ t1 M  v& A$ T5 K) J: ], p
Duration : 1 h 47 min
& S2 {) s, K, b; e6 HBit rate : 28.5 Mb/s
) f) S: S; I  Z# y" sWidth : 3 840 pixels9 @3 U6 V0 e! I2 z  J+ B
Height : 2 160 pixels* U6 t1 _! w3 h. i2 k
Display aspect ratio : 16:9
$ S/ {: X8 D: p1 P/ R8 }  K, DFrame rate mode : Constant" h0 r5 L9 w0 j- s( [# P4 c0 o. X
Frame rate : 23.976 (24000/1001) FPS
! v- ?" E$ `6 g- Z  jColor space : YUV+ {4 N% w$ P: q3 G: A& f+ R0 H& w
Chroma subsampling : 4:2:0 (Type 2)
( b  g8 ~" r' VBit depth : 10 bits
2 v6 v  `. f( W0 w2 u2 rBits/(Pixel*Frame) : 0.1432 h* S2 L: P! C! r
Stream size : 21.5 GiB (92%)
4 k* G+ _2 d: L5 f# O( rLanguage : English2 o. R' z9 c" P- B4 B) I* f
Default : Yes7 k2 P" ^4 O3 j# i# q
Forced : No% F4 X/ _# {' o3 P1 z% j
Color range : Full& n& s! n2 k2 y
Color primaries : BT.20207 C  }% I) k5 i  B* U! |" n
Transfer characteristics : PQ' @" Q+ _' y3 z) O/ Q
Matrix coefficients : BT.2020 non-constant
6 ?1 u, R; o- b- s+ ]: o  e1 ]/ FMastering display color primaries : Display P3! w$ A% `. w/ n& C! U1 o
Mastering display luminance : min: 0.0050 cd/m2, max: 4000 cd/m2
9 S& T; @5 v6 _" RMaximum Content Light Level : 10000 cd/m2$ K; e! n$ L0 S& f# w5 W
Maximum Frame-Average Light Level : 694 cd/m2* _( A" @5 V& s* U4 d# C+ m

6 Y. \  z* `$ e2 t4 f

4 n, `3 Q% Y  }  m4 yAudio #1
/ M) f( `: V/ m* g6 `8 |& V+ bID : 2
: m. X) T3 S  F, S+ O. {Format : DTS XLL4 D0 z! M; P2 _4 \
Format/Info : Digital Theater Systems
4 @: i( a  E* tCommercial name : DTS-HD Master Audio5 B8 s3 h6 p5 G& x8 U2 v
Codec ID : A_DTS/ g4 Q; H, ]1 }) ]
Duration : 1 h 47 min
# t! X9 Q% W& Q% NBit rate mode : Variable
: j' {! j6 ^+ F2 Y/ @8 cBit rate : 2 206 kb/s
* R5 A9 @. N: kChannel(s) : 6 channels
% _& b2 o9 m8 C  dChannel layout : C L R Ls Rs LFE- U* a5 C0 [* k* i
Sampling rate : 48.0 kHz0 f: R6 V5 y* d% g& \$ u
Frame rate : 93.750 FPS (512 SPF); W+ q' n6 e/ h" u2 J# O; V) }
Bit depth : 16 bits
9 y: k; P6 M3 W8 CCompression mode : Lossless
; D9 J; D5 {" T. t2 H+ ODelay relative to video : 3 ms
* I" n1 T& k  a5 FStream size : 1.66 GiB (7%)
+ {8 ]0 `6 {" E, ~. U, u% Q3 G! RTitle : DTS-HD MA 5.1, C+ ^. j+ j6 Y: y
Language : English
6 [" p# t1 p) SDefault : Yes) Y; {* u0 Z1 q3 D0 ^2 N
Forced : No
8 K! t) s3 [+ ~2 @2 Z
7 T& [2 t% W5 I) {  m
3 d% |* N: D7 L
Audio #2
6 E2 E* V# `% C3 qID : 3$ e  d+ O- [# j
Format : E-AC-3
2 S8 P$ |) b5 b' K$ ^7 n/ L/ OFormat/Info : Enhanced AC-3
1 f+ C1 T# p7 ]& WCommercial name : Dolby Digital Plus" K; n* r6 ^( e8 t
Codec ID : A_EAC3! r0 B0 u- S; O* W
Duration : 1 h 47 min# y# Q& F2 m1 A9 j$ @3 ?
Bit rate mode : Constant
: b. Y. A6 l% O( ?7 k/ A, H5 pBit rate : 384 kb/s
; r, |# G; C  Z3 j; [- X# F' tChannel(s) : 6 channels
  {( I! L+ _, q* m) {0 n% G0 HChannel layout : L R C LFE Ls Rs
* B0 c0 G3 o) R& X, jSampling rate : 48.0 kHz
% ?( w+ {6 j# |/ i( ?Frame rate : 31.250 FPS (1536 SPF)
; A6 t" B, k0 c4 T6 H3 ?% T* WCompression mode : Lossy
0 N( V0 s/ V! A  HStream size : 296 MiB (1%)' H4 _, w4 m: y3 P7 o
Language : English
) e; U- b! S- d0 W% u3 AService kind : Complete Main2 t  M% e$ a4 d' a6 q
Default : No
  a, R, u1 R+ u9 f2 o  @) YForced : No
+ {- r1 D* T7 _3 [" E( a8 d4 ^' ~
" D: T! ]1 ]' E7 `1 y' p$ `+ v( Y
/ F; M+ C! S+ l1 P7 y! J3 w
Text* U2 o7 }1 J( K/ c# i
ID : 4
8 f' O. `% `) @$ IFormat : UTF-8
+ g- N5 {3 D0 i* gCodec ID : S_TEXT/UTF8
; p5 |' g- X) D  e+ {; ?, s. YCodec ID/Info : UTF-8 Plain Text4 P* H8 |# {0 k
Duration : 1 h 43 min8 o5 W* u" @0 D& C0 C- J1 ?* x
Bit rate : 50 b/s
  P/ s( X* C% B; g+ k6 T! F. @Count of elements : 1454
% Q3 `" N" t. v3 V7 p$ IStream size : 38.3 KiB (0%)
, j7 y/ z9 H( G' h4 c0 CTitle : English-SRT! R( T$ J2 p0 N4 q4 ~
Language : English* @3 C6 u- @+ \- {% H; q
Default : Yes/ J: u# V# p& Z5 b* }, c/ P9 Z/ g
Forced : No. y& P' h1 x& a1 h; A  S

% H  a, l2 t$ D/ G# [' e) c1 ]

# p2 @% M0 t4 p& G$ |/ w; |+ t9 uMenu
6 A6 p# b$ X/ X. Q  W+ e00:00:00.000 : Chapter 01
' t# z) S0 O6 G4 g" P8 {. i9 b00:05:26.284 : Chapter 02
! Z; `9 F6 x# `, Z, L* y2 v, C5 b00:10:36.886 : Chapter 03% T4 x3 X* J  m/ Q2 e
00:16:38.581 : Chapter 040 K& E# I5 `% S- g9 s7 P
00:23:32.995 : Chapter 05
! N/ A) C& V% E6 D00:30:25.532 : Chapter 062 c& J1 x7 y8 g* c- S+ o- f
00:39:08.888 : Chapter 07
: H8 n$ j/ w* E3 P% ~6 P00:47:23.674 : Chapter 089 k0 d8 G/ W+ E( y- V8 _' {; }
00:55:04.176 : Chapter 09) _4 H( }/ U; E! t# ]3 Z$ C
01:01:54.544 : Chapter 10
) y3 Q3 A$ Y3 r: p4 e01:09:42.595 : Chapter 11
6 k" B# f$ V. w01:17:41.782 : Chapter 12
" e( O1 q1 y9 w; j; w01:21:47.152 : Chapter 13# Z/ f8 |, ?8 D1 O* l2 ]
01:24:41.368 : Chapter 14& J! U: H$ Z* n- R6 d* f! N3 \
01:30:23.710 : Chapter 15( n% G& p3 Q0 Y* b
01:40:20.973 : Chapter 16

( a, n3 E0 x9 r! j2 L0 t
% r- U7 r( Q. ?; o! J蓝光高清网提示您  点击下方附件名即可开始下载1 R8 M& b# v% q# v

' I+ O: {2 A7 ?

! v8 r# E9 u# m9 o  G黑与蓝 / Exposure / 警網黑幕(台)/蓝与黑4K.Black.and.Blue.2019.2160p.WEB-DL.x265.10bit.HDR.DTS-HD.MA.5.1-4K电影下载1 |  d0 j7 J! \3 D

8 e$ r# S# J; F/ Q1 l% K' j3 H/ P蓝与黑4K.Black.and.Blue.2019.2160p.WEB-DL.x265.10bit.HDR.DTS-HD.MA.5.1【4K HDR 23.43 GB】2 B: ]( k- ]3 c& x- e
蓝与黑4K.Black.and.Blue.2019.2160p.WEB-DL.x265.10bit.HDR.DTS-HD.MA.5.1-SW.torrent (文件大小:59.23 KB)
加入蓝光高清网VIP会员  无限制下载本站所有资源---点这里

资源下载、资源播放、字幕使用、无法下载等常见问题---点这里
回复

使用道具 举报

您需要登录后才可以回帖 登录 | 立即注册

本版积分规则

烧友之家(蓝光高清网)本站内容部分由用户自主分享和转载自互联网,转载目的在于传递更多信息,并不代表本网赞同其观点和对其真实性负责。 如有侵权、违反国家法律政策行为,请联系我们,我们会第一时间及时清除和处理!
蓝光高清网 综合资讯平台
关注我们
  • 官方微信公众号
  • 扫码下载官方APP

X3.4 Licensed© 2001-2013 蓝光高清网 烧友之家APP |网站地图