游客您好
第三方账号登陆
  • 点击联系客服

    在线时间:9:00-18:00

    客服QQ

    1371333023

    电子邮件

    lanniao@1080pro.net
  • 烧友之家APP

    随时掌握烧友资讯

  • 扫描二维码

    关注微信公众号

推荐阅读
蓝鸟
未知星球 | 未知职业
  • 关注0
  • 粉丝2
  • 帖子93936
精选帖子
开启左侧

[英国] 小混混五专巡演电影 4k Little.Mix.LM5.The.Tour.Film.2019.2160p.演唱会下载—

[复制链接]
蓝鸟 发表于 2021-4-30 10:13:09 | 显示全部楼层 |阅读模式 打印 上一主题 下一主题

加入蓝光高清网,轻松下载最新4k资源

您需要 登录 才可以下载或查看,没有帐号?立即注册

x
电影封面修改.jpg
简       介

       Following the release of their fifth studio album \\\'LM5\\\', Perrie Edwards, Jesy Nelson, Leigh-Anne Pinnock and Jade Thirlwall embarked on \\\'LM5 The Tour\\\' in 2019, taking in 40 arenas across Europe, including Spain, Italy, Germany, Netherlands, Belgium, France, UK and Ireland. They sold over 400,000 tickets including an almighty 5 sold out shows at the 02 London. This film was recorded at the final show of the tour at London\\\'s iconic 02 arena. In a career spanning set of nineteen songs the group perform hits such as \\\'Shout Out to My Ex\\\', \\\'Woman Like Me\\\', \\\'Wings\\\' and \\\'Touch\\\' to a crowd of over 15,000. Featuring surprise guest appearances from London legend Stormzy on \\\'Power\\\' and long-term collaborator Kamille on \\\'More Than Words\\\'.


影片参数
小混混五专巡演电影4k  Little.Mix.LM5.The.Tour.Film.2019.2160p.纪录片信息
Video
ID : 1
Format : HEVC
Format/Info : High Efficiency Video Coding
Format profile : Main@L5.1@High
Codec ID : V_MPEGH/ISO/HEVC
Duration : 1 h 37 min
Bit rate : 15.0 Mb/s
Width : 3 840 pixels
Height : 1 628 pixels
Display aspect ratio : 2.35:1
Frame rate mode : Constant
Frame rate : 25.000 FPS
Color space : YUV
Chroma subsampling : 4:2:0
Bit depth : 8 bits
Bits/(Pixel*Frame) : 0.096
Stream size : 10.2 GiB (97%)
Writing library : x265 3.5+9-bf91444e0:[Windows][MSVC 1900][64 bit] 8bit
Encoding settings : cpuid=1111039 / frame-threads=5 / numa-pools=32 / wpp / no-pmode / no-pme / no-psnr / no-ssim / log-level=2 / input-csp=1 / input-res=3840x1628 / interlace=0 / total-frames=164056 / level-idc=51 / high-tier=1 / uhd-bd=0 / ref=4 / no-allow-non-conformance / repeat-headers / annexb / aud / no-eob / no-eos / hrd / info / hash=0 / no-temporal-layers / no-open-gop / min-keyint=25 / keyint=250 / gop-lookahead=0 / bframes=4 / b-adapt=2 / b-pyramid / bframe-bias=0 / rc-lookahead=25 / lookahead-slices=4 / scenecut=40 / hist-scenecut=0 / radl=0 / no-splice / no-intra-refresh / ctu=64 / min-cu-size=8 / rect / no-amp / max-tu-size=32 / tu-inter-depth=1 / tu-intra-depth=1 / limit-tu=0 / rdoq-level=2 / dynamic-rd=0.00 / no-ssim-rd / signhide / no-tskip / nr-intra=0 / nr-inter=0 / no-constrained-intra / no-strong-intra-smoothing / max-merge=3 / limit-refs=3 / limit-modes / me=3 / subme=3 / merange=57 / temporal-mvp / no-frame-dup / no-hme / weightp / no-weightb / no-analyze-src-pics / deblock=-3:-3 / no-sao / no-sao-non-deblock / rd=4 / selective-sao=0 / no-early-skip / rskip / no-fast-intra / no-tskip-fast / no-cu-lossless / no-b-intra / no-splitrd-skip / rdpenalty=0 / psy-rd=2.00 / psy-rdoq=1.00 / no-rd-refine / no-lossless / cbqpoffs=0 / crqpoffs=0 / rc=crf / crf=19.0 / qcomp=0.60 / qpstep=4 / stats-write=0 / stats-read=0 / vbv-maxrate=160000 / vbv-bufsize=160000 / vbv-init=0.9 / min-vbv-fullness=50.0 / max-vbv-fullness=80.0 / crf-max=0.0 / crf-min=0.0 / ipratio=1.40 / pbratio=1.30 / aq-mode=2 / aq-strength=1.00 / cutree / zone-count=0 / no-strict-cbr / qg-size=32 / no-rc-grain / qpmax=69 / qpmin=0 / no-const-vbv / sar=1 / overscan=0 / videoformat=5 / range=0 / colorprim=1 / transfer=1 / colormatrix=1 / chromaloc=0 / display-window=0 / cll=0,0 / min-luma=0 / max-luma=255 / log2-max-poc-lsb=8 / vui-timing-info / vui-hrd-info / slices=1 / no-opt-qp-pps / no-opt-ref-list-length-pps / no-multi-pass-opt-rps / scenecut-bias=0.05 / hist-threshold=0.03 / no-opt-cu-delta-qp / no-aq-motion / no-hdr10 / no-hdr10-opt / no-dhdr10-opt / no-idr-recovery-sei / analysis-reuse-level=0 / analysis-save-reuse-level=0 / analysis-load-reuse-level=0 / scale-factor=0 / refine-intra=0 / refine-inter=0 / refine-mv=1 / refine-ctu-distortion=0 / no-limit-sao / ctu-info=0 / no-lowpass-dct / refine-analysis-type=0 / copy-pic=1 / max-ausize-factor=1.0 / no-dynamic-refine / no-single-sei / no-hevc-aq / no-svt / no-field / qp-adaptation-range=1.00 / scenecut-aware-qp=0conformance-window-offsets / right=0 / bottom=0 / decoder-max-rate=0 / no-vbv-live-multi-pass
Default : Yes
Forced : No
Color range : Limited
Color primaries : BT.709
Transfer characteristics : BT.709
Matrix coefficients : BT.709


Audio
ID : 2
Format : AC-3
Format/Info : Audio Coding 3
Commercial name : Dolby Digital
Codec ID : A_AC3
Duration : 1 h 37 min
Bit rate mode : Constant
Bit rate : 384 kb/s
Channel(s) : 6 channels
Channel layout : L R C LFE Ls Rs
Sampling rate : 48.0 kHz
Frame rate : 31.250 FPS (1536 SPF)
Compression mode : Lossy
Stream size : 268 MiB (2%)
Language : English
Service kind : Complete Main
Default : Yes
Forced : No

蓝光高清网提示您  点击下方附件名即可开始下载

小混混五专巡演电影4k  Little.Mix.LM5.The.Tour.Film.2019.2160p.纪录片下载
游客,如果您要查看本帖隐藏内容请回复
加入蓝光高清网VIP会员  无限制下载本站所有资源---点这里

资源下载、资源播放、字幕使用、无法下载等常见问题---点这里
回复

使用道具 举报

精彩评论4

顺其自然_OLTF 发表于 2021-5-1 09:32:09 | 显示全部楼层
我看看不行咋地
回复 支持 反对

使用道具 举报

wodounan手机认证 发表于 2021-5-1 11:17:58 | 显示全部楼层
非常不错的网站,谢谢
回复 支持 反对

使用道具 举报

旧梦换新颜手机认证 发表于 2021-5-1 19:55:45 | 显示全部楼层
谢谢了,回复看一看
回复 支持 反对

使用道具 举报

-dong手机认证 发表于 5 天前 | 显示全部楼层
想  谢谢楼主
回复 支持 反对

使用道具 举报

您需要登录后才可以回帖 登录 | 立即注册

本版积分规则

烧友之家(蓝光高清网)本站内容部分由用户自主分享和转载自互联网,转载目的在于传递更多信息,并不代表本网赞同其观点和对其真实性负责。 如有侵权、违反国家法律政策行为,请联系我们,我们会第一时间及时清除和处理!
蓝光高清网 综合资讯平台
关注我们
  • 官方微信公众号
  • 扫码下载官方APP

X3.4 Licensed© 2001-2013 蓝光高清网 烧友之家APP |网站地图