游客您好
第三方账号登陆
  • 点击联系客服

    在线时间:9:00-18:00

    客服QQ

    1371333023

    电子邮件

    lanniao@1080pro.net
  • 烧友之家APP

    随时掌握烧友资讯

  • 扫描二维码

    关注微信公众号

推荐阅读
蓝鸟
未知星球 | 未知职业
  • 关注0
  • 粉丝2
  • 帖子93936
精选帖子
开启左侧

选美小姐 4k Miss.Bala.2019.2160p.BCORE.WEB-DL.x265.10bit.HDR.DTS-HD.MA.5.1电影下载—57.82 GB

[复制链接]
蓝鸟 发表于 2021-4-30 10:44:35 | 显示全部楼层 |阅读模式 打印 上一主题 下一主题
选美小姐
上映时间:2019年
类型:剧情 
地区:美国 
导演:凯瑟琳·哈德威克
主演:吉娜·罗德里格兹 / 托马斯·戴克 / 芭芭拉·帕多 / 克里斯蒂娜·罗朵 / 塞巴斯蒂安 卡诺
画质标准:4K  封装音轨:DTS-HD.MA 5.1 
豆瓣评分:5.9分

加入蓝光高清网,轻松下载最新4k资源

您需要 登录 才可以下载或查看,没有帐号?立即注册

x
简       介
, G7 n: f, h8 [
7 s) _& X5 C% e( F$ v4 @/ S  [暮光之城]导演凯瑟琳·哈德威克将执导索尼新版[选美小姐]。2011年的影片[选美小姐]曾代表墨西哥参加第84届奥斯卡最佳外语片的角逐。故事讲述女模特格洛里亚(吉娜·罗德里格兹 饰)因目睹黑帮犯罪过程而导致生活发生天翻地覆的变化。, [2 a2 n7 {: I: w# i

* Z8 f& H- \4 l$ ~, {* o: \, D& j
9 l; b2 J; \  b1 i& a
影片参数3 b+ b) n/ ]( C+ w  D2 w# \
双面蝶/选美小姐4k Miss.Bala.2019.2160p.BCORE.WEB-DL.x265.10bit.HDR.DTS-HD.MA.5.1电影信息
& S5 ?. {: ?4 M$ I( ~Video
9 @, }# R/ X" T# iID : 1  I' f2 S$ l$ u+ A0 g0 ?- D
Format : HEVC# f2 a: v+ p  Q' ]$ ~. S  h
Format/Info : High Efficiency Video Coding
* q- B$ ]8 a9 L; J" A( {/ y; kFormat profile : Main 10@L5.2@High) k4 ~; k  G7 b; Z, d* m0 I2 Y9 s
HDR format : SMPTE ST 2086, HDR10 compatible
; K+ `" b# K% B6 ~* {: L+ `Codec ID : V_MPEGH/ISO/HEVC
: Z4 H. W; H9 t- v8 w% b$ H. m4 DDuration : 1 h 43 min1 N, ]8 P7 U) e: |
Bit rate : 75.9 Mb/s2 ?3 ~: n1 ?+ E4 r4 l# v
Width : 3 840 pixels
2 F, X$ |! f# |Height : 2 160 pixels& Y8 |0 x, Q) o( O$ l
Display aspect ratio : 16:92 T& p" c* c8 F: e( B$ G
Frame rate mode : Constant  Q$ l" f& Z" o1 ?" c6 E0 |
Frame rate : 23.976 (24000/1001) FPS2 l8 U! s0 Q/ R
Color space : YUV
0 F$ {5 N) n, q2 e& pChroma subsampling : 4:2:0 (Type 2)
3 k! u  }0 n' J5 UBit depth : 10 bits
8 b8 u: M& d  X0 e% {Bits/(Pixel*Frame) : 0.382
! M1 E- L, y9 N$ |; J! NStream size : 55.1 GiB (95%)% S3 X5 r( ]8 [6 v+ k0 h9 D, Y
Language : English
) b* L" o. R: z5 g* J/ F/ GDefault : Yes' q& n: a& m6 D# Q0 n3 X
Forced : No
. z7 _  k1 U  z: E5 h# EColor range : Full/ Q; a/ D' [7 \; @
Color primaries : BT.20200 C7 g# h! `3 q$ f' H0 k
Transfer characteristics : PQ
  {) v. ?9 u. dMatrix coefficients : BT.2020 non-constant
! H  I9 l2 w; R2 B' H6 s! W/ uMastering display color primaries : Display P3
% r  G/ X0 C6 w1 j# {, {) ^9 eMastering display luminance : min: 0.0050 cd/m2, max: 4000 cd/m2: _0 r  P* G8 X8 y  V% X9 {
Maximum Content Light Level : 4000 cd/m2
# J) ~  f1 r" S; M! _7 nMaximum Frame-Average Light Level : 1239 cd/m2
' U$ Y8 ^  I% x% F7 `* V% ]% W( H. [, e" w  j! f+ d: j

: Q' X* d4 M! }& ~5 X) _Audio #1; X0 R& Y/ E# X! M( d
ID : 27 D& P2 h" S) u3 L& x
Format : DTS XLL
! C8 L/ }# F" N) S6 A5 A9 vFormat/Info : Digital Theater Systems
! b5 ]' E: h9 n8 `2 eCommercial name : DTS-HD Master Audio
" D6 U1 U. ]! sCodec ID : A_DTS0 `4 s, Z3 X9 @* |- T, M5 L
Duration : 1 h 43 min  K( \, x$ g# _9 h5 E
Bit rate mode : Variable8 ]* v, N' j! f* E6 W5 O
Bit rate : 2 220 kb/s
3 ^  W( x$ a) Q$ E+ w! MChannel(s) : 6 channels
: d  `) ]% e1 a/ _; Z6 n# fChannel layout : C L R Ls Rs LFE
6 A/ h" F/ d( `. s& @9 c0 f% q% USampling rate : 48.0 kHz7 [, |' T7 L: A/ J: D
Frame rate : 93.750 FPS (512 SPF)
1 c, L$ D& J2 ~Bit depth : 16 bits; f: H9 i8 u. D* P# W5 Y( Y
Compression mode : Lossless
; K+ l0 Q0 ~5 t' U6 K5 f& H- zStream size : 1.61 GiB (3%)( e) f3 h7 @4 C0 i" G5 K
Title : DTS-HD MA 5.1* b0 B# E  S, s1 y  W
Language : English& \" K# {/ c$ a# S
Default : Yes
* Y# P5 L8 L9 EForced : No; d/ q- r% d! n6 a6 W; V

5 S0 H$ |1 Y3 {

" a$ _, i3 U3 {& i, rAudio #2
7 ~0 V' p) v2 b  G! XID : 3
9 w( W3 {! v! |  D; i) ~Format : DTS) u& K- }2 \5 y# L7 z7 q' ~+ V
Format/Info : Digital Theater Systems
1 U2 S& J, h4 FCodec ID : A_DTS
  Z- ?& n/ D; o* N7 ?* IDuration : 1 h 43 min. c6 P( Z; V1 q' |7 C
Bit rate mode : Constant
, E# ~3 O9 T/ c' ?- |' gBit rate : 768 kb/s
6 q. ?% @/ f4 o2 VChannel(s) : 6 channels/ n2 T  L% U: h" p( v! G4 A# o$ h
Channel layout : C L R Ls Rs LFE7 w0 }" E0 E; O( i1 L5 B
Sampling rate : 48.0 kHz
6 P8 j/ P6 n* `* p6 L7 P# vFrame rate : 93.750 FPS (512 SPF)# O' z% n8 e5 n! `  M: z1 t
Bit depth : 24 bits
; b' C( X$ ^& a' R+ lCompression mode : Lossy) e- C4 i; Y) U/ o  z8 I
Stream size : 571 MiB (1%)
; C$ G, g4 V5 Y. oTitle : DTS 5.1$ D0 D9 y! [8 }6 i  v
Language : English
& K) Y/ m4 Y) BDefault : No, @8 E5 U8 N# C" S* A8 M  G
Forced : No
* s2 W- A. ^! B1 R7 r7 p
7 W  M1 \0 C! f* k# a7 @* M$ _

0 I, W: P/ b7 p% r8 Y; k8 bAudio #3
: ~% f% e( d9 S, i7 D+ M/ ?3 P6 @  J9 uID : 4
  u9 P" {. L! {  G2 z2 LFormat : AC-3
# U: t7 {: S8 @# A9 |Format/Info : Audio Coding 3
5 n& p9 t  T' X. t' M* r. ECommercial name : Dolby Digital; A4 O) y/ W: |9 J; e
Codec ID : A_AC3
7 P# W" m" W. B8 W! t1 D* l6 }/ ~Duration : 1 h 43 min
: b  S2 p5 V8 v- \! ]% i  J0 ]Bit rate mode : Constant' w5 A, A4 u& F, L) d: k* g8 U
Bit rate : 640 kb/s
9 t+ N( C- J, I; W9 KChannel(s) : 6 channels
  S5 H$ ?* u/ |4 ~( zChannel layout : L R C LFE Ls Rs
' @; C; t; I, @6 \4 {5 X$ S! \Sampling rate : 48.0 kHz
- W* ^, L  Z$ ~2 E, }Frame rate : 31.250 FPS (1536 SPF)
" ?4 e& V+ s* v8 G: X& lCompression mode : Lossy* z4 E+ ^& s( ?: \2 c9 R% i
Stream size : 476 MiB (1%)& `) C5 v6 e; ]) B  G; |
Title : DD 5.1
, V. Y6 \3 n6 E3 nLanguage : English3 m. a% T6 Q$ g& o
Service kind : Complete Main
8 [4 {7 v1 p, }  ?$ W5 ?1 tDefault : No
1 N. _/ }& x5 H, Q  H: B, cForced : No

' h* u& b& ?5 T
. u% [- C: s* Z; w6 G蓝光高清网提示您  点击下方附件名即可开始下载
- U; j; X, I" z! B8 B) }
; n+ Q& {2 o1 n1 B: g# d双面蝶/选美小姐4k Miss.Bala.2019.2160p.BCORE.WEB-DL.x265.10bit.HDR.DTS-HD.MA.5.1电影下载2 ]7 Q1 A3 f( j3 [5 A
" |) `6 A& D! o
选美小姐4k Miss.Bala.2019.2160p.BCORE.WEB-DL.x265.10bit.HDR.DTS-HD.MA.5.1【57.82 GB】  h9 v& |) E4 u* n4 a! d$ n
# J6 X$ j8 ?; Y1 u, q
选美小姐4k Miss.Bala.2019.2160p.BCORE.WEB-DL.x265.10bit.HDR.DTS-HD.MA.5.1.torrent (文件大小:145.21 KB)
加入蓝光高清网VIP会员  无限制下载本站所有资源---点这里

资源下载、资源播放、字幕使用、无法下载等常见问题---点这里
回复

使用道具 举报

精彩评论1

ggang1 发表于 2021-4-30 11:42:38 | 显示全部楼层
谢楼主分享
回复 支持 反对

使用道具 举报

您需要登录后才可以回帖 登录 | 立即注册

本版积分规则

烧友之家(蓝光高清网)本站内容部分由用户自主分享和转载自互联网,转载目的在于传递更多信息,并不代表本网赞同其观点和对其真实性负责。 如有侵权、违反国家法律政策行为,请联系我们,我们会第一时间及时清除和处理!
蓝光高清网 综合资讯平台
关注我们
  • 官方微信公众号
  • 扫码下载官方APP

X3.4 Licensed© 2001-2013 蓝光高清网 烧友之家APP |网站地图