游客您好
第三方账号登陆
  • 点击联系客服

    在线时间:9:00-18:00

    客服QQ

    1371333023

    电子邮件

    lanniao@1080pro.net
  • 烧友之家APP

    随时掌握烧友资讯

  • 扫描二维码

    关注微信公众号

推荐阅读
蓝鸟
未知星球 | 未知职业
  • 关注0
  • 粉丝2
  • 帖子93936
精选帖子
开启左侧

潜伏4:锁命亡灵 4k Insidious.The.Last.Key.2018.2160p.BCORE.WEB-DL.x265.10bit.HDR.DTS-HD.MA.5.1电影下载—55.66 GB

[复制链接]
蓝鸟 发表于 2021-4-30 10:49:35 | 显示全部楼层 |阅读模式 打印 上一主题 下一主题
潜伏4:锁命亡灵
上映时间:2018年
类型:惊悚 恐怖 
地区:美国 
导演:亚当·罗比特尔
主演:林·沙烨 / 雷·沃纳尔 / 安格斯·桑普森 / 柯克·埃斯沃多 / 凯特琳·杰拉德
画质标准:4K HDR  封装音轨:DTS-HD.MA 5.1 
豆瓣评分:6.4分

加入蓝光高清网,轻松下载最新4k资源

您需要 登录 才可以下载或查看,没有帐号?立即注册

x
简       介* d4 G/ C, ~; {0 d

2 Z+ ]( q) G& e. C" c. E2 [  《阴儿房第3章:从灵开始》琳雪伊回归饰演超自然心理学家,由《失魂记忆》导演亚当罗勃提尔执导、《阴儿房》系列原创团队之一的雷沃纳尔执笔剧本、鬼才导演温子仁将担任制片,打造极致惊悚的最新经典。* ^- ]7 A$ D+ M  y3 s
  《阴儿房第4章:锁命亡灵》不仅将带来恐怖加倍的全新故事,制片规模亦更较以往全面升级,导演受访时表示:「开拍前我甚至派特效师至美国费城一座有两百年历史的废弃监狱考察,我相信唯有体验过那种压迫黑暗且气氛极难承受的环境,我们才能真实呈现出囚禁那种最骇人的场景。」. B) }5 E4 k9 ]" t& Z; N) Z
  故事讲述,灵媒爱丽丝在一次偶然的案件调查中,却意外将他带回最不愿面对的过往,更被迫面对内心最害怕的秘密,「恐惧是回家唯一的路⋯」。她将被迫「回家」面对内心深处最恐惧的黑暗阴影。
; c# V- E& e- N  在《阴儿房》系列扮演灵媒的琳雪伊无疑是贯穿电影的灵魂角色,全新作品《阴儿房第4章:锁命亡灵》中将揭露更多关于她的背景叙述,琳雪伊表示:「这次的故事会把很多大家的疑问都解释清楚,例如为何爱丽丝能成为与灵界沟通的角色,以及更多在这种『天赋』下她所承受的苦难与不愿面对的过程,我相信粉丝将会更能同理与对这个角色感到更深的共鸣。」
' a4 E" A; v/ H8 h# E  v5 h5 A5 P

( K* I# [0 O7 g% O% I: A

  _7 ^& V# `) P3 }, `' M影片参数
6 y" e( ~$ P# n/ t+ }$ R* Q; q) D2 w
潜伏4 / 儿凶 第四回(港) / 阴儿房第4章:锁命亡灵(台) / 潜伏4:最后的线索 / 潜伏4:最后的钥匙 //潜伏4:锁命亡灵4k Insidious.The.Last.Key.2018.2160p.BCORE.WEB-DL.x265.10bit.HDR.DTS-HD.MA.5.1电影信息
6 ?7 ~6 ?/ {% p9 X2 Z, yVideo+ J, x/ @# ?1 c
ID : 1+ {/ V$ j/ ]  t/ f/ J* L3 [
Format : HEVC2 O- q! L0 h8 s# Q. O
Format/Info : High Efficiency Video Coding9 h0 F  q) O7 i: E9 |
Format profile : Main 10@L5.2@High
# e9 n! d8 W$ `# G- ^HDR format : SMPTE ST 2086, HDR10 compatible$ x0 h- k5 T3 P0 a$ R2 f$ W( D
Codec ID : V_MPEGH/ISO/HEVC
( E/ o# o3 [$ h! zDuration : 1 h 43 min% T0 F% E0 c4 A6 I3 g8 x
Bit rate : 73.7 Mb/s
0 n1 `. e" _7 nWidth : 3 840 pixels6 v0 z" c+ m2 `$ V
Height : 2 160 pixels8 r' g" z3 R# D, Q2 R) ~# _9 x
Display aspect ratio : 16:9
' d2 E- o. B$ R* l+ T1 h) i4 ZFrame rate mode : Constant
: z/ j% P4 n3 z" _Frame rate : 23.976 (24000/1001) FPS" Y( l: z. j4 y) n2 t
Color space : YUV. y* \  b% V: k! r9 F6 n
Chroma subsampling : 4:2:0 (Type 2)
9 N- r% a9 s& A3 k5 yBit depth : 10 bits
8 {! D6 }) X; w* ?+ p, h2 U. W( DBits/(Pixel*Frame) : 0.370
7 A% @5 M! v& w' a: [Stream size : 53.1 GiB (95%)1 n$ C% K" ]. G+ a" `8 g
Language : English# y3 r0 X( B" X" L6 a
Default : Yes. k) G4 ]) J6 `
Forced : No
3 d; L) t  s* ?" M8 [& \Color range : Full
# `; |# m" B/ R9 [4 v* D3 p* jColor primaries : BT.2020: y8 R4 r1 W8 z+ O3 }- J
Transfer characteristics : PQ+ G; d; ]6 H0 f3 T$ U
Matrix coefficients : BT.2020 non-constant8 M+ ]7 K* m2 T* H' b
Mastering display color primaries : Display P3; q# f2 w" F! k) J
Mastering display luminance : min: 0.0050 cd/m2, max: 4000 cd/m2) F/ p9 j2 F6 W8 y5 c" z9 n* s
Maximum Content Light Level : 997 cd/m2
) M$ E7 T2 N5 a8 O5 z% S6 n7 ~Maximum Frame-Average Light Level : 99 cd/m2+ d" Z7 o0 D; y, W
3 }. {0 Q3 D! Y; o
1 w5 X* a0 ]* J! o/ L
Audio #1
; p, a& _' D! H; o4 M7 c/ N; e# M# gID : 2  J( X" s0 U2 i9 s( D
Format : DTS XLL
6 W# X" X7 Q2 vFormat/Info : Digital Theater Systems
* E: |3 |1 |6 ?% s9 t7 n* L4 G: CCommercial name : DTS-HD Master Audio
5 U. B3 [7 n% {1 l, |! gCodec ID : A_DTS
% u$ P0 s! W- s6 j. ~Duration : 1 h 43 min
  H! \7 b3 K# }3 m% M$ U( A2 MBit rate mode : Variable
4 R6 D( Y" o, N/ m( r* ~9 bBit rate : 2 151 kb/s& o# p: k& x/ b; X2 `& ?; i7 `9 c
Channel(s) : 6 channels
0 U0 N+ I$ X# ~0 s1 g7 b% _; ]Channel layout : C L R Ls Rs LFE* Q8 p2 j: i, P
Sampling rate : 48.0 kHz4 j" U% _9 ~) D- t* Y
Frame rate : 93.750 FPS (512 SPF)0 }) }/ K' j3 D) P$ L2 M2 Q8 O
Bit depth : 16 bits
% J1 X% _9 s% G* \' r7 o( K( H5 R4 @- aCompression mode : Lossless  O8 Y* T6 t7 y5 t4 ~2 k
Delay relative to video : 9 ms
1 c. Q0 ]% ^5 M4 t9 I6 KStream size : 1.55 GiB (3%)- K! t7 K& X2 ^5 z
Title : DTS-HD MA 5.12 L" \2 h' ~" Q
Language : English6 Q+ T$ g) ]/ }/ k. Q* k# }" M/ O
Default : Yes
/ e3 ?1 i8 v3 o, s' OForced : No7 V! }5 v: m9 x6 L' @0 [

# V4 x( r, P4 C/ I
$ e: u! R" |4 J
Audio #2
0 E6 i) u' |# D- k. mID : 3  }$ [7 C: s) \" ~4 J) r
Format : DTS
. l0 R- D1 q8 L( o1 p% BFormat/Info : Digital Theater Systems
$ ^8 a$ F: |7 H  G) oCodec ID : A_DTS% W0 m% L/ \+ S6 @2 d/ R; ^
Duration : 1 h 43 min
% s) p/ I, a( A- E( J8 x! WBit rate mode : Constant$ v( z! D2 k2 k
Bit rate : 768 kb/s" G# s  }7 c4 e. e
Channel(s) : 6 channels
+ \& {. R" u" J$ q6 wChannel layout : C L R Ls Rs LFE5 A8 |1 G8 j! M4 A/ v! q# S
Sampling rate : 48.0 kHz' Z( s: T. o7 Z& k/ R* X
Frame rate : 93.750 FPS (512 SPF)) L" e2 x  p/ J, @& {; s4 D
Bit depth : 24 bits6 ]; G8 l: p' f, h* w
Compression mode : Lossy
+ F% e( B/ \9 jStream size : 567 MiB (1%)
* a- b' c0 _) g( l7 p# A. q9 ZTitle : DTS 5.1
5 A+ s7 o9 B" y2 N- ~6 {+ t. L- ]Language : English: E, N6 Z+ Y7 X; Z$ [: `$ s( c. @) F
Default : No8 J. ~" c) j# b' m. ^
Forced : No8 ]; u: D1 J2 q$ ~2 e4 i( E% j
& G5 e& k- t, t4 [# g

9 }" C1 |" J. T) `4 C3 Z& M3 xAudio #3
% D# O6 b# G0 ^2 T* G5 Q4 hID : 43 q/ E5 C6 o- q
Format : AC-35 M, m/ j0 ?$ E! V/ ?. }
Format/Info : Audio Coding 3* b# w# B* d: `+ P5 n( h) A
Commercial name : Dolby Digital& \0 C# @( S$ b; k/ k% h
Codec ID : A_AC3
8 m# \5 f& n. R% g/ CDuration : 1 h 43 min
3 L! S7 O" f2 x( U) J# q, ~Bit rate mode : Constant2 ^9 N  _8 C5 k
Bit rate : 640 kb/s) p0 Y$ Q1 s5 G! i( ]; ?
Channel(s) : 6 channels5 P( U# r- y! x
Channel layout : L R C LFE Ls Rs+ ^+ ^* `8 E$ _% v+ |4 [  q
Sampling rate : 48.0 kHz3 `+ p* \5 I9 e1 F* u
Frame rate : 31.250 FPS (1536 SPF). z" D) G( f, d: n* _( [  C" R
Compression mode : Lossy8 ^7 B6 a' \  W8 X3 z9 r8 S
Stream size : 472 MiB (1%)* K  q  L+ Y( y. c8 m* @' P" T5 t7 s
Title : DD 5.1% E2 o' k1 {- S7 `1 P2 K0 z
Language : English
$ Y6 d; Y3 `: \8 F- i7 A% I$ }6 KService kind : Complete Main
4 v- s' y$ X% L) W; T' d5 Z# fDefault : No
6 l2 Q3 z  B& P7 R0 tForced : No
, `( {5 I. _6 f$ l1 `2 u
  K7 ~+ {' U9 E: T, ^
) X  ?9 U' @& D; l. Q
Text
) y& J9 B& N) }4 kID : 50 \7 y4 G1 ?% }
Format : UTF-8
9 E, |/ k- t) iCodec ID : S_TEXT/UTF8
9 z7 N9 J1 y/ Y% ?1 ICodec ID/Info : UTF-8 Plain Text
5 {9 f: @; s1 K' P. d& DDuration : 1 h 34 min
8 @/ q3 M* o0 n+ xBit rate : 34 b/s- v/ X" c8 O$ |6 S
Count of elements : 8359 K7 g# }2 o7 ~, B9 g- r& @+ J( w8 T
Stream size : 23.8 KiB (0%)* T; s5 E% C6 ?: b" Z
Language : English" ?) F6 o7 L, Y
Default : Yes$ i5 W* _& D. g
Forced : No7 F& \5 s# \5 e+ p# i5 n5 ?8 [3 E

, f& T$ ~4 |* L3 r% P

! ^& m4 K' M; h  E. CMenu/ D9 U1 i6 V, c0 i7 I
00:00:00.000 : 00:00:00.000
& B  }- g* i5 T( Y00:16:21.397 : 00:16:21.3973 t/ K: u, X6 ?5 P" k$ ~$ b! i
00:19:55.111 : 00:19:55.111
* q# f4 [0 y9 |" ?( I00:22:29.056 : 00:22:29.056  z! }7 w+ @7 f& C) ~3 d/ Y) \
00:29:03.617 : 00:29:03.6171 O- _7 p! w+ T8 D7 O' |6 G
00:36:24.307 : 00:36:24.307: {" S; }) ^7 x. o
00:44:05.685 : 00:44:05.685
! [8 s. s" E1 [; f3 s* M, t5 U( E1 o00:54:14.168 : 00:54:14.168
' `$ c5 E; K& _6 x8 d$ c00:57:21.855 : 00:57:21.855
8 a$ i4 K4 ]+ y# `3 V01:02:08.183 : 01:02:08.183* [, A- p5 c1 b
01:05:17.664 : 01:05:17.664
! v5 |' s( q7 |01:10:17.964 : 01:10:17.964
& D; W6 ]+ E6 B* n& K' ^01:16:58.239 : 01:16:58.239
; \/ b, u2 Q/ o# Z% ]: S01:22:11.593 : 01:22:11.5932 V$ y: M- N  G+ [6 O+ M# O9 h
01:29:49.467 : 01:29:49.467
' a1 k( X8 Y* V, |6 s5 b, N# `01:34:34.252 : 01:34:34.252
2 ?" q; D& {7 W5 b1 K; J! M

% R) |1 a8 d' A% A* |; g蓝光高清网提示您  点击下方附件名即可开始下载% K, B0 Q6 e' n, p+ Z

! o4 U) c* {" `, v% O1 f潜伏4 / 儿凶 第四回(港) / 阴儿房第4章:锁命亡灵(台) / 潜伏4:最后的线索 / 潜伏4:最后的钥匙 //潜伏4:锁命亡灵4k Insidious.The.Last.Key.2018.2160p.BCORE.WEB-DL.x265.10bit.HDR.DTS-HD.MA.5.1电影下载
' W7 ~9 i* u- g' D
3 h3 F8 ]( a, e. H/ W( F$ B  n( J7 k$ P潜伏4:锁命亡灵4k Insidious.The.Last.Key.2018.2160p.BCORE.WEB-DL.x265.10bit.HDR.DTS-HD.MA.5.1【55.66 GB】
9 V: `3 ?7 G" \* N2 Z4 R 潜伏4:锁命亡灵4k Insidious.The.Last.Key.2018.2160p.BCORE.WEB-DL.x265.10b.torrent (文件大小:139.84 KB)
加入蓝光高清网VIP会员  无限制下载本站所有资源---点这里

资源下载、资源播放、字幕使用、无法下载等常见问题---点这里
回复

使用道具 举报

精彩评论1

ggang1 发表于 2021-4-30 11:39:57 | 显示全部楼层
谢楼主分享
回复 支持 反对

使用道具 举报

您需要登录后才可以回帖 登录 | 立即注册

本版积分规则

烧友之家(蓝光高清网)本站内容部分由用户自主分享和转载自互联网,转载目的在于传递更多信息,并不代表本网赞同其观点和对其真实性负责。 如有侵权、违反国家法律政策行为,请联系我们,我们会第一时间及时清除和处理!
蓝光高清网 综合资讯平台
关注我们
  • 官方微信公众号
  • 扫码下载官方APP

X3.4 Licensed© 2001-2013 蓝光高清网 烧友之家APP |网站地图