[剧情] 愤怒之上 The.Upside.of.Anger.2005.1080p.BluRay.x264.DD5.1-FGT 7.13GB

[复制链接]
蓝鸟VIP会员 永久VIP 发表于 2019-8-22 00:27:48 | 显示全部楼层 |阅读模式 打印 上一主题 下一主题

马上注册,轻松下载,海量资源,让你轻松玩转社区。

您需要 登录 才可以下载或查看,没有帐号?立即注册

x

?
◎译  名 愤怒之上
◎片  名 The Upside of Anger
◎年  代 2005
◎国  家 美国/德国/英国
◎类  别 剧情/喜剧/爱情
◎语  言 英语
◎上映日期 2005-01-23
◎IMDb评分  6.9/10 from 18,235 users
◎IMDb链接  http://www.imdb.com/title/tt0365885/
◎豆瓣评分 7.0/10 from 627 users
◎豆瓣链接 http://movie.douban.com/subject/1309037/
◎片  长 USA: 118 分钟
◎导  演 Mike Binder
◎主  演 Joan Allen
      Kevin Costner
      Erika Christensen
      Keri Russell
      Evan Rachel Wood
◎简  介
  泰瑞(琼·艾伦 Joan Allen 饰)曾经也有过美满的家庭和幸福的人生,可是,酗酒的恶习让她的脾气愈发暴躁,性格愈加乖僻,最终,忍受妻子多年的丈夫格瑞(Danny Webb 饰)选择了离开。人到中年却遭到了丈夫的抛弃,泰瑞的精神陷入了崩溃之中,无所适从的她只能借助酒精麻痹自己的神经,但这只会让事情变得越来越糟,泰瑞和四个女儿之间的关系也因此跌入了冰点。
  一次偶然中,邻居丹尼(凯文·科斯特纳 Kevin Costner 饰)出现在了泰瑞的生活里,随着时间的推移,两颗寂寞的心靠得越来越近。看到母亲的生活因为爱情的降临而步入了正轨,泰瑞的四个女儿决定帮助泰瑞促成这段感情。
Video
ID                                       : 1
Format                                   : AVC
Format/Info                              : Advanced Video Codec
Format profile                           : [email protected]
Format settings, CABAC                   : Yes
Format settings, ReFrames                : 5 frames
Codec ID                                 : V_MPEG4/ISO/AVC
Duration                                 : 1h 56mn
Bit rate                                 : 8 104 Kbps
Width                                    : 1 920 pixels
Height                                   : 814 pixels
Display aspect ratio                     : 2.35:1
Frame rate mode                          : Constant
Frame rate                               : 23.976 fps
Color space                              : YUV
Chroma subsampling                       : 4:2:0
Bit depth                                : 8 bits
Scan type                                : Progressive
Bits/(Pixel*Frame)                       : 0.216
Stream size                              : 6.46 GiB (91%)
Writing library                          : x264 core 142 r2409 d6b4e63
Encoding settings                        : cabac=1 / ref=5 / deblock=1:-3:-3 / analyse=0x3:0x133 / me=umh / subme=11 / psy=1 / psy_rd=1.00:0.00 / mixed_ref=1 / me_range=32 / chroma_me=1 / trellis=2 / 8x8dct=1 / cqm=0 / deadzone=21,11 / fast_pskip=0 / chroma_qp_offset=-2 / threads=12 / lookahead_threads=1 / sliced_threads=0 / nr=0 / decimate=1 / interlaced=0 / bluray_compat=0 / constrained_intra=0 / bframes=5 / b_pyramid=2 / b_adapt=2 / b_bias=0 / direct=3 / weightb=1 / open_gop=0 / weightp=2 / keyint=240 / keyint_min=23 / scenecut=40 / intra_refresh=0 / rc=2pass / mbtree=0 / bitrate=8104 / ratetol=2.0 / qcomp=0.60 / qpmin=0 / qpmax=69 / qpstep=4 / cplxblur=20.0 / qblur=0.5 / ip_ratio=1.40 / pb_ratio=1.30 / aq=2:0.90
Language                                 : English
Default                                  : Yes
Forced                                   : No
Audio
ID                                       : 2
Format                                   : AC-3
Format/Info                              : Audio Coding 3
Mode extension                           : CM (complete main)
Format settings, Endianness              : Big
Codec ID                                 : A_AC3
Duration                                 : 1h 56mn
Bit rate mode                            : Constant
Bit rate                                 : 640 Kbps
Channel(s)                               : 6 channels
Channel positions                        : Front: L C R, Side: L R, LFE
Sampling rate                            : 48.0 KHz
Bit depth                                : 16 bits
Compression mode                         : Lossy
Stream size                              : 535 MiB (7%)
Language                                 : English
Default                                  : Yes
Forced                                   : No
Text
ID                                       : 3
Format                                   : UTF-8
Codec ID                                 : S_TEXT/UTF8
Codec ID/Info                            : UTF-8 Plain Text
Language                                 : English
Default                                  : No
Forced                                   : No
Menu
00:00:00.000                             : :Chapter 01
00:08:21.334                             : :Chapter 02
00:16:09.093                             : :Chapter 03
00:24:54.659                             : :Chapter 04
00:33:03.064                             : :Chapter 05
00:42:59.034                             : :Chapter 06
00:50:40.746                             : :Chapter 07
00:58:03.229                             : :Chapter 08
01:07:01.308                             : :Chapter 09
01:14:15.908                             : :Chapter 10
01:22:03.167                             : :Chapter 11
01:29:08.216                             : :Chapter 12
01:38:09.049                             : :Chapter 13
01:46:26.796                             : :Chapter 14

精彩剧照


                                       

蓝光高清网提示您 点击下方附件名称 马上开始下载



温馨提示:
本站资源优先使用迅雷下载,迅雷会员下载,速度基本可以跑满宽带
如果遇到无资源或者版权问题无法下载,推荐使用115网盘离线下载(点击查看115网盘离线下载教程


  • 该资源需要您回复以后 刷新网页进行下载操作

  • 1、The.Upside.of.Anger.2005.1080p.BluRay.x264.DD5.1-FGT.torrent 72KB 已下载 0 次

加入蓝光高清网VIP会员  无限制下载本站所有资源---点此加入

资源下载、资源播放、字幕使用、无法下载等常见问题---点这里

回复

使用道具 举报

懒得打字嘛,点击右侧快捷回复
高级模式
B Color Image Link Quote Code Smilies 上传

本版积分规则

关注0

粉丝0

帖子66311

发布主题
最新电影 论坛
广告位
联系我们
点击这里联系客服

服务时间:
周一到周日8:00-23:30

  • 打开微信扫一扫
    关注公众号

  • 手机QQ扫一扫
    添加客服

Archiver手机版蓝光高清网 ( 渝ICP备18006373号-2 )|网站地图

Powered by Discuz! X3.4  © 2001-2013 Comsenz Inc.