游客您好
第三方账号登陆
  • 点击联系客服

    在线时间:9:00-18:00

    客服QQ

    1371333023

    电子邮件

    lanniao@1080pro.net
  • 烧友之家APP

    随时掌握烧友资讯

  • 扫描二维码

    关注微信公众号

推荐阅读
蓝鸟
未知星球 | 未知职业
  • 关注0
  • 粉丝2
  • 帖子93936
精选帖子
开启左侧

太空异旅 4K.Voyagers.2021.2160p.AMZN.WEB-DL.x265.10bit.HDR10Plus.DDP5.1-4k电影下载—11.34 GB

[复制链接]
4945 2
蓝鸟 发表于 2021-5-1 10:12:46 | 只看该作者 |只看大图 |阅读模式 打印 上一主题 下一主题
太空异旅
上映时间:2021年
类型:惊悚 科幻 冒险 
地区:美国 英国 其他 
导演:尼尔·博格
主演:泰伊·谢里丹 / 莉莉-罗丝·德普 / 菲恩·怀特海德 / 科林·法瑞尔 / 香缇·亚当斯
画质标准:4K HDR  封装音轨:Dolby TrueHD 5.1 Dolby Atmos 
豆瓣评分:5.7分

加入蓝光高清网,轻松下载最新4k资源

您需要 登录 才可以下载或查看,没有帐号?立即注册

x
简       介
  ~& B2 z& g8 |: F
$ v7 j: r8 v/ C6 d! k% J; [  在人类的一项长久的计划中,30个少年被送往一颗新行星居住。但是在他们的船长离奇的死亡以后,年轻的船员们陷入了混乱的局面当中。在屈服于人类原始的兽性之后,这些少年分别集结成了不同的部落。
# R; m  a- T" J  u% H( i, D# Y. D( U- d, D) w2 X* j9 `) l3 R
. L4 L, H9 d0 ~0 @
影片参数# n! L6 B! S0 e% ?& y4 q2 P9 V
一级任务(台) / 迷惘星空 / 旅行者 / 远航者/太空异旅4K.Voyagers.2021.2160p.AMZN.WEB-DL.x265.10bit.HDR10Plus.DDP5.1-4k电影信息
" W5 b" l8 Z. l. H- f1 {Video2 _, x  G. d' Q% l1 y% o6 |
ID : 1
) S% L+ _. ?0 _( nFormat : HEVC9 D& ~) e3 U& s
Format/Info : High Efficiency Video Coding4 G4 y8 V( k) o4 y9 H$ A
Format profile : Main 10@L5@Main/ H/ ^& \1 b8 p6 Z- A
HDR format : SMPTE ST 2094 App 4, Version 1, HDR10+ Profile B compatible
- A% f/ d: D6 J/ Y- Y9 E" t" T# y9 vCodec ID : V_MPEGH/ISO/HEVC. W" v: }! }! x# B3 P/ g
Duration : 1 h 47 min- ]1 E8 [9 A! F) b7 p9 A2 o9 S
Bit rate : 14.4 Mb/s8 M. i% F# a2 ?% ], q: k$ x$ u# Y
Width : 3 840 pixels
; s0 |% h# g! k7 u" xHeight : 1 600 pixels+ H  k: S5 g; b9 V, l
Display aspect ratio : 2.40:1
5 T% b" E9 X6 m7 n, d; |Frame rate mode : Constant; a, ^) x% e1 e! A0 a
Frame rate : 23.976 (24000/1001) FPS4 [, E* X1 b% i1 X
Color space : YUV4 R; q, M2 o! [
Chroma subsampling : 4:2:0
, x) S8 f3 m6 HBit depth : 10 bits
, Z4 s/ O+ z" {, b4 T8 b3 h) mBits/(Pixel*Frame) : 0.098
# Y& ^# W' P: z7 {+ fStream size : 10.9 GiB (96%)
5 z5 p. ~6 O; \$ |* XLanguage : English/ Q) V: i. Q+ a5 r# F* l7 X& f
Default : Yes
& ]5 T8 P8 s8 q2 qForced : No* q$ A5 K+ J  e' r
Color range : Limited
  x" r$ ~; ^3 N# V7 z* ^Color primaries : BT.2020
/ ~$ C2 h# J: ^7 `Transfer characteristics : PQ6 D# F% }0 I% Z. S' m! w
Matrix coefficients : BT.2020 non-constant( ?$ M( E6 z' e& K  O
Mastering display color primaries : Display P3  K/ ?+ P$ H( T. `
Mastering display luminance : min: 0.0050 cd/m2, max: 1000 cd/m2
( Z, G1 g: g( D3 U3 _Maximum Content Light Level : 1000 cd/m22 J% d, V4 p- I3 p" `0 A
Maximum Frame-Average Light Level : 383 cd/m2
$ _( i+ V* J! U
; a2 Z. Z9 q. y
+ }, B' W- u8 z
Audio' c, D0 }5 B$ T5 w  v
ID : 2
7 s+ |: v3 F4 l6 |$ J1 PFormat : E-AC-3
9 d2 u- {2 r  ?- [+ }/ p1 j7 C3 ~Format/Info : Enhanced AC-3
) y' }# o  p$ k. Q! q- D1 dCommercial name : Dolby Digital Plus
0 w4 Y6 O/ b# W0 c$ [Codec ID : A_EAC3* Z. Q* [& ]* B7 C6 u
Duration : 1 h 47 min0 u3 n; k5 `" V8 h2 O$ f
Bit rate mode : Constant& w# `- e( u7 V. k
Bit rate : 640 kb/s
/ k3 h+ i7 D9 x' J( ZChannel(s) : 6 channels  k$ {8 f( P+ `  B2 t2 a, {
Channel layout : L R C LFE Ls Rs  e: D0 \) A- y+ A% }8 E2 e( K9 R
Sampling rate : 48.0 kHz
  J' f# [! X3 U: aFrame rate : 31.250 FPS (1536 SPF)
  o* E7 j2 A) m2 O+ sCompression mode : Lossy
7 Z3 Y3 d; R0 h6 F0 T$ IStream size : 494 MiB (4%)
- z# i4 ^: J" z: F* Y4 t: {Title : DDP 5.18 J/ M" m1 R' C+ q4 M
Language : English
4 b6 Z* i2 T: PService kind : Complete Main% |( Z6 j2 p1 N. S& [' e' q
Default : No% I! o# w5 p7 Y+ h% h( d
Forced : No6 L% {$ ~% G. {

: R' Z3 F# J6 R# O/ w9 ~
: T2 `3 ?' |1 a" F5 P  h8 Z
Text) q+ B2 R$ U! ?" W
ID : 38 G# y" V& x9 `. s4 I9 W5 k# c
Format : UTF-8- N% k& R( K# I, z5 F9 q% b
Codec ID : S_TEXT/UTF8. O; V2 \# p0 D% C+ R
Codec ID/Info : UTF-8 Plain Text$ H* q; D& v  v% ]+ u/ _* w
Duration : 1 h 35 min5 U$ v6 z# M" `3 O( q
Bit rate : 38 b/s
! }* J1 a2 |% b5 I+ jCount of elements : 1003
1 k/ u( I, P5 U1 N7 t% e& pStream size : 26.7 KiB (0%)
$ v4 {7 M% n9 Q/ h* `! j! s! b; _Language : English% A7 X4 v- J; j
Default : Yes6 H6 Y# ~; \6 G+ n
Forced : No
8 V7 p, c6 l& P, @  t

" N( z! u4 a$ k3 ]# t蓝光高清网提示您  点击下方附件名即可开始下载' R. b- I6 [* H$ c' u3 K7 }- k
7 G  J. \- a5 t/ n; Q4 c) r

: T8 v! o- g0 V. g1 B- s一级任务(台) / 迷惘星空 / 旅行者 / 远航者/太空异旅4K.Voyagers.2021.2160p.AMZN.WEB-DL.x265.10bit.HDR10Plus.DDP5.1-4K电影下载4 s3 |4 r8 D. w- h, i  D, ]) q6 I- X
, p5 {, F' {+ W/ o' R( `2 y, C$ G
太空异旅4K.Voyagers.2021.2160p.AMZN.WEB-DL.x265.10bit.HDR10Plus.DDP5.1【4K HDR 11.34 GB 】, W/ |# \6 t* a. O
太空异旅4K.Voyagers.2021.2160p.AMZN.WEB-DL.x265.10bit.HDR10Plus.DDP5.1-SW.torrent (文件大小:57.35 KB)
, n& r% i5 k! e& [8 K( J, Q' k2 E2 H: e0 q& n4 B
太空异旅中文字幕下载
* k+ ^: G" q" Q1 I Voyagers.2021.1080p.AMZN.WEB-DL.DDP5.1.H.264.rar (文件大小:57.06 KB)
" X7 h+ [3 [" f( a& U( I

% C# g9 z6 S0 e1 b$ d# C! M* G
加入蓝光高清网VIP会员  无限制下载本站所有资源---点这里

资源下载、资源播放、字幕使用、无法下载等常见问题---点这里
回复

使用道具 举报

精彩评论2

跳转到指定楼层
沙发
bengoben手机认证 发表于 2021-5-1 21:03:28 | 只看该作者
打卡来了~!!
回复

使用道具 举报

板凳
Licye 发表于 前天 02:51 | 只看该作者
谢谢分享
回复

使用道具 举报

您需要登录后才可以回帖 登录 | 立即注册

本版积分规则

烧友之家(蓝光高清网)本站内容部分由用户自主分享和转载自互联网,转载目的在于传递更多信息,并不代表本网赞同其观点和对其真实性负责。 如有侵权、违反国家法律政策行为,请联系我们,我们会第一时间及时清除和处理!
蓝光高清网 综合资讯平台
关注我们
  • 官方微信公众号
  • 扫码下载官方APP

X3.4 Licensed© 2001-2013 蓝光高清网 烧友之家APP |网站地图