游客您好
第三方账号登陆
  • 点击联系客服

    在线时间:9:00-18:00

    客服QQ

    1371333023

    电子邮件

    lanniao@1080pro.net
  • 烧友之家APP

    随时掌握烧友资讯

  • 扫描二维码

    关注微信公众号

推荐阅读
蓝鸟
未知星球 | 未知职业
  • 关注0
  • 粉丝2
  • 帖子93936
精选帖子
开启左侧

冷血悍将 4k Without.Remorse.2021.HDR.2160p.WEB.H265-4k电影下载—11.69 GB

[复制链接]
蓝鸟 发表于 2021-5-1 10:16:35 | 显示全部楼层 |阅读模式 打印 上一主题 下一主题
冷血悍将
上映时间:2021年
类型:动作 犯罪 冒险 
地区:美国 
导演:斯特法诺·索利马
主演:迈克尔·B·乔丹 / 朱迪·特纳-史密斯 / 杰米·贝尔 / 盖·皮尔斯 / 劳伦·伦敦
画质标准:4K HDR  封装音轨:Dolby TrueHD 5.1 Dolby Atmos 
豆瓣评分:5.8分

加入蓝光高清网,轻松下载最新4k资源

您需要 登录 才可以下载或查看,没有帐号?立即注册

x
简       介8 a/ N& ]1 d; m
) G2 z1 }+ P8 J* K2 x) V4 G: i
  本片由斯特法诺·索利马执导,泰勒·谢里丹担任编剧,根据汤姆·克兰西创作同名小说改编,讲述前特种兵约翰·克拉克(乔丹饰)女友被贩毒组织杀害,可就在他决定复仇时,华盛顿高管要求他完成解救高级军官的秘密任务。杰米·贝尔仍在就加盟本片进行最后谈判。; y4 e( C+ z0 ^2 l- v( [) M
' ~4 Q* v& ?* r/ l) v3 e) \7 u
! X, m  p1 G3 h. j1 f/ H
影片参数
  t3 t$ F9 A( J! l' j8 V
彩虹六号起源/冷血悍将4k Without.Remorse.2021.HDR.2160p.WEB.H265-4k电影信息
2 |7 N, c& u2 H% a* J) K0 EVideo
& W$ ^4 X% b" FID : 10 Y. z3 y! a! E. F& d+ J; J5 ~! O
Format : HEVC0 b! ]- D& _7 e" z9 q3 b7 ~+ n
Format/Info : High Efficiency Video Coding
! B7 L) D; {2 s0 S$ f7 GFormat profile : Main 10@L5@Main
+ n/ d" m9 A0 C  }HDR format : SMPTE ST 2094 App 4, Version 1, HDR10+ Profile B compatible
$ e5 h: N2 w3 ~4 g& b+ _. u9 mCodec ID : V_MPEGH/ISO/HEVC
: o, Q) Q# _" `- vDuration : 1 h 49 min: b# s* H4 Z# r& y+ p
Bit rate : 14.4 Mb/s
! t9 z4 x! [0 g2 l7 OWidth : 3 840 pixels* A/ S0 w; ?. D  K7 ]
Height : 1 600 pixels
) H) d6 }3 \" y3 z$ @0 EDisplay aspect ratio : 2.40:1
1 G3 @4 Y9 o, o, fFrame rate mode : Constant
, N; W6 w; \' c* Z1 i# QFrame rate : 23.976 (24000/1001) FPS) W8 d' _5 y5 k' B/ l6 v0 j
Color space : YUV$ k: P) [5 J4 l$ c7 i
Chroma subsampling : 4:2:0. L1 U6 A0 S/ K) U: r
Bit depth : 10 bits
/ W. Z& ~3 z2 ^1 {# bBits/(Pixel*Frame) : 0.098: z7 A1 |9 o$ f* ]  n  Q- P
Stream size : 11.0 GiB (94%)
: f: A/ c* r1 ~, EDefault : Yes( C0 K5 ^9 o0 y& S. }" Z
Forced : No0 H- O& l4 a" G
Color range : Limited% K( @$ |* M6 T6 @6 B  o( W
Color primaries : BT.2020
: i4 e  ]8 Z4 I! ?9 y; h, R$ H3 ITransfer characteristics : PQ
2 p+ Z' G5 @6 F7 ZMatrix coefficients : BT.2020 non-constant( }. g- |" l+ Z. I
Mastering display color primaries : Display P3; k  W5 x0 x4 v- f$ |
Mastering display luminance : min: 0.0001 cd/m2, max: 1000 cd/m24 L4 Y( n  m4 i9 o
Maximum Content Light Level : 919 cd/m2
+ y* W4 h. J, h2 Q- r, [Maximum Frame-Average Light Level : 492 cd/m2
6 z# C6 \: p7 U, a* h$ d$ D$ h4 Q! `1 F% H9 B  V7 |

0 O) \" T! b2 q) O3 e5 ?) _Audio
& g3 w2 ^3 @3 l/ P4 hID : 26 X4 A" N4 X/ }) h
Format : E-AC-3
4 S9 p9 j) _* XFormat/Info : Enhanced AC-3* k* c) F- ^! ~/ P
Commercial name : Dolby Digital Plus8 e% T' B( J* c
Codec ID : A_EAC3
0 z' w  d" T2 G! Q9 h: c+ r; z4 M# zDuration : 1 h 49 min: Y0 o' Y% L! C2 l
Bit rate mode : Constant! N; F  H* O6 Q) R: d; _
Bit rate : 640 kb/s
2 ~/ u1 S. w4 JChannel(s) : 6 channels+ w4 q$ g" @5 Y! }; A2 r; E4 H
Channel layout : L R C LFE Ls Rs9 m, ]: i; w7 V6 c
Sampling rate : 48.0 kHz
) r/ Z4 u' E% C7 ?4 S$ H6 D! J4 WFrame rate : 31.250 FPS (1536 SPF)
' B; j( E  [; w  J3 e7 hCompression mode : Lossy
1 q& X0 F! _; Q+ h& C- LStream size : 500 MiB (4%)( ?( c8 o4 N; @
Language : English
9 I* @: ]4 N3 x- M' ]# u! ?Service kind : Complete Main
/ ?# t& D& w9 v$ R. G2 v) G9 wDefault : Yes
8 U0 n9 _5 L; Q) p, {  M& x. GForced : No

& `/ ]) |: B" P+ U5 g% D0 p- z
' ~7 A. h) I, j. u# Y/ G# f7 x4 u蓝光高清网提示您  点击下方附件名即可开始下载
1 Q5 U# E; c- M+ ^. g' X) I+ a, t" |, q4 r( D0 S3 W
+ M4 H' s' v) s) q0 \" U: q
彩虹六号起源/冷血悍将4k Without.Remorse.2021.HDR.2160p.WEB.H265电影下载
; d/ @$ A  J5 u+ D/ N( [4 [
; J, j! g( v# I冷血悍将4k Without.Remorse.2021.HDR.2160p.WEB.H265【4K HDR 11.69 GB】
0 C* i2 w( K7 P+ e* M/ C 冷血悍将4k Without.Remorse.2021.HDR.2160p.WEB.H265-NAISU.torrent (文件大小:59.14 KB)
加入蓝光高清网VIP会员  无限制下载本站所有资源---点这里

资源下载、资源播放、字幕使用、无法下载等常见问题---点这里
回复

使用道具 举报

精彩评论2

077不是我 发表于 2021-5-3 21:07:58 | 显示全部楼层
谢谢分享谢谢分享
回复 支持 反对

使用道具 举报

dong777手机认证 发表于 2021-5-5 12:04:25 | 显示全部楼层
XXXXXXXXXXXXXXX
回复 支持 反对

使用道具 举报

您需要登录后才可以回帖 登录 | 立即注册

本版积分规则

烧友之家(蓝光高清网)本站内容部分由用户自主分享和转载自互联网,转载目的在于传递更多信息,并不代表本网赞同其观点和对其真实性负责。 如有侵权、违反国家法律政策行为,请联系我们,我们会第一时间及时清除和处理!
蓝光高清网 综合资讯平台
关注我们
  • 官方微信公众号
  • 扫码下载官方APP

X3.4 Licensed© 2001-2013 蓝光高清网 烧友之家APP |网站地图