游客您好
第三方账号登陆
  • 点击联系客服

    在线时间:9:00-18:00

    客服QQ

    1371333023

    电子邮件

    lanniao@1080pro.net
  • 烧友之家APP

    随时掌握烧友资讯

  • 扫描二维码

    关注微信公众号

推荐阅读
蓝鸟
未知星球 | 未知职业
  • 关注0
  • 粉丝2
  • 帖子93936
精选帖子
开启左侧

22大战地球 4k 22.vs.Earth.2021.2160p.DSNP.WEBRip.x265.10bit.HDR.DDP5.1.Atmos电影下载—

[复制链接]
蓝鸟 发表于 2021-5-1 10:20:20 | 显示全部楼层 |阅读模式 打印 上一主题 下一主题
22大战地球
上映时间:2021年
类型:动画 短片 
地区:美国 
导演:凯文·诺尔廷
主演:蒂娜·菲
画质标准:4K HDR  封装音轨:Dolby TrueHD 5.1 Dolby Atmos 
豆瓣评分:6.2分

加入蓝光高清网,轻松下载最新4k资源

您需要 登录 才可以下载或查看,没有帐号?立即注册

x
简       介6 ?3 [% _: j! j/ |1 {' P5 R8 X6 @1 y

4 }$ n! \6 l9 R" V9 D4 r5 z  n  故事背景设定在迪士尼·皮克斯的《心灵奇旅》之前。22违反了生之来处的规则,拒绝去地球,招募了另外五个新的灵魂来试图反叛。# Y! ~; C9 l; d; ?- M4 {8 Q8 ^* m
  然而,由于同伙们的活动导致了意料之外的结果,22的颠覆性密谋实际上可能会意外揭示出生命的意义。
% {3 S4 X) j1 S5 G! ^4 I& F: S, l

/ s( V6 [5 U' y7 C  G

( K, n9 c" m" L8 c$ k: r影片参数
, j# a% z: Q4 K% Z) p$ y
《心灵奇旅》番外短片 / 《心灵奇旅》前传短片/22大战地球4k 22.vs.Earth.2021.2160p.DSNP.WEBRip.x265.10bit.HDR.DDP5.1.Atmos电影信息
) \, d, U$ _/ P; sVideo
" ^. m" z4 z4 ]- x+ a6 e8 VID : 1
3 w+ ]( R( b. H2 T7 s; L" qFormat : HEVC
. E1 O- b( Q' w, X$ H! HFormat/Info : High Efficiency Video Coding
: l6 ?1 E! E" ^( H9 W# m, @+ U$ }Format profile : Main 10@L5@High
7 s$ v/ q$ l1 f, FCodec ID : V_MPEGH/ISO/HEVC
, K2 b: A% L$ K" Y) Y: F- oDuration : 5 min 37 s* V4 C3 J1 Z8 I  a2 v+ d$ b% A5 T$ r* Z
Bit rate : 15.9 Mb/s
  m/ m; }8 B) M7 f% E* H) b# dWidth : 3 840 pixels
1 Z- n5 e4 U4 A/ {0 @3 AHeight : 2 160 pixels" |6 {$ \5 |, N8 F1 h( s( N' p- }
Display aspect ratio : 16:96 ~6 h, B. p7 U! N6 ~1 m, v
Frame rate mode : Constant
6 y9 Z) D! ~4 tFrame rate : 23.976 (24000/1001) FPS. X0 j) A; w% ?6 s5 S. h/ ?1 `8 [
Color space : YUV
4 N6 O& T0 c/ `7 l$ i3 _: N% AChroma subsampling : 4:2:0. v1 d4 S) y3 p" t% r6 m; D$ T  c+ l
Bit depth : 10 bits
! K+ w, f8 z8 u5 `Bits/(Pixel*Frame) : 0.080# c1 r+ u/ ~5 j9 \/ b
Stream size : 638 MiB (95%)
/ Y# R. l: {' x* O. P* aDefault : Yes. O4 v+ w  ?  b; W6 ^. l8 y2 S% w
Forced : No
3 @. ^) z. g6 _0 nColor range : Limited
* y0 \3 t$ ~6 s& s# [/ pColor primaries : BT.2020
6 v2 X$ U7 y0 V% q  O1 X; eTransfer characteristics : PQ
3 d% P: f/ B) _0 T6 O% cMatrix coefficients : BT.2020 non-constant9 [0 X4 y: u1 X# ^8 K

+ k2 c9 i% B9 C, O" [( L# i- f* g  s: |

# r, L/ ?& m$ h  nAudio/ Q. a; `3 E2 o1 V- \( c  q& U* M
ID : 24 u' P! o( |( ~& L9 p
Format : E-AC-3 JOC
' p' ?* A. Q5 G' e4 B1 s- R6 UFormat/Info : Enhanced AC-3 with Joint Object Coding
4 i. ?  P- v6 X% @+ q5 a2 cCommercial name : Dolby Digital Plus with Dolby Atmos
6 ]4 y2 }. `  M* z0 {0 _/ ^1 SCodec ID : A_EAC3
% Z, r+ v9 m7 y/ z6 g+ ODuration : 5 min 37 s5 ^( |: U2 q' Y3 Q1 k# H  E( h7 T
Bit rate mode : Constant
8 G5 e& {" y4 \Bit rate : 768 kb/s
$ k0 q$ R$ ]2 `& Z/ |, hChannel(s) : 6 channels
* b1 y7 h. I; ]Channel layout : L R C LFE Ls Rs
' M( c' g  r) }Sampling rate : 48.0 kHz
+ ?1 v5 J: q8 ]2 W0 r4 HFrame rate : 31.250 FPS (1536 SPF)
: t" x# J# Z9 @+ W, I( M+ DCompression mode : Lossy
" w; i! r4 K* X0 A) O7 a/ d; ZStream size : 30.9 MiB (5%)! n( M. e# D2 Q
Title : English7 A' N7 d7 R3 g* \
Language : English* A# d' J/ q7 Y/ [2 m
Service kind : Complete Main+ d+ N! I) Y' T5 q+ I- F* U
Default : No
& L2 f1 b* N, G# YForced : No9 w. O% q' j* Z& z# S9 ]+ ?
Complexity index : 16! n: {3 C; c  X6 j. |# W- Z( Z( z! S
Number of dynamic objects : 15
7 p6 D$ u8 k6 W$ VBed channel count : 1 channel
5 `- Q8 u+ |0 W; q/ g( V- }Bed channel configuration : LFE

& }! S* K/ C8 K+ P
# Z# p# N; H3 }1 e蓝光高清网提示您  点击下方附件名即可开始下载$ A- K6 e& i& f3 x" q
, i& q& j- o  n" o4 ~

) O8 H* |% w! c' l《心灵奇旅》番外短片 / 《心灵奇旅》前传短片/22大战地球4k 22.vs.Earth.2021.2160p.DSNP.WEBRip.x265.10bit.HDR.DDP5.1.Atmos电影下载
' Y) `; n6 F- @4 L. F
8 o: W- ]* `2 K( g$ ]: P7 b  F22大战地球4k 22.vs.Earth.2021.2160p.DSNP.WEBRip.x265.10bit.HDR.DDP5.1.Atmos【668.68 MB】, L0 X& d7 {+ \, H
22大战地球4k 22.vs.Earth.2021.2160p.DSNP.WEBRip.x265.10bit.HDR.DDP5.1.Atm.torrent (文件大小:13.71 KB)
加入蓝光高清网VIP会员  无限制下载本站所有资源---点这里

资源下载、资源播放、字幕使用、无法下载等常见问题---点这里
回复

使用道具 举报

您需要登录后才可以回帖 登录 | 立即注册

本版积分规则

烧友之家(蓝光高清网)本站内容部分由用户自主分享和转载自互联网,转载目的在于传递更多信息,并不代表本网赞同其观点和对其真实性负责。 如有侵权、违反国家法律政策行为,请联系我们,我们会第一时间及时清除和处理!
蓝光高清网 综合资讯平台
关注我们
  • 官方微信公众号
  • 扫码下载官方APP

X3.4 Licensed© 2001-2013 蓝光高清网 烧友之家APP |网站地图