[恐怖] 邪恶之屋/魔屋 The.House.of.the.Devil.2009.1080p.BluRay.x264.DTS-FGT 8.71GB

[复制链接]
蓝鸟VIP会员 永久VIP 发表于 2019-8-22 00:29:29 | 显示全部楼层 |阅读模式 打印 上一主题 下一主题

马上注册,轻松下载,海量资源,让你轻松玩转社区。

您需要 登录 才可以下载或查看,没有帐号?立即注册

x

?
◎译  名 邪恶之屋/魔屋
◎片  名 The House of the Devil
◎年  代 2009
◎国  家 美国
◎类  别 恐怖/惊悚
◎语  言 英语
◎上映日期 2009-02-06
◎IMDb评分  6.5/10 from 25,520 users
◎IMDb链接  http://www.imdb.com/title/tt1172994/
◎豆瓣评分 5.1/10 from 730 users
◎豆瓣链接 http://movie.douban.com/subject/3054967/
◎片  长 95 分钟
◎导  演 缇·威斯特 Ti West
◎主  演 乔赛琳·唐娜休 Jocelin Donahue
      汤姆·诺南 Tom Noonan
      玛丽·沃伦诺夫 Mary Woronov
      格蕾塔·葛韦格 Greta Gerwig
      AJ·鲍恩 AJ Bowen
      迪·沃伦斯 Dee Wallace
      希瑟·罗博 Heather Robb
      莉娜·杜汉姆 Lena Dunham
      格雷厄姆·瑞斯尼克 Graham Reznick
      缇·威斯特 Ti West
◎简  介
  20世纪80年代,美丽的女大学生萨曼莎·休斯(乔塞琳·多纳休 Jocelin Donahue 饰)看上一间公寓,好心的女房东已经免去了麻烦的保证金,不过萨曼莎还是要为了每月的房租而努力。她从布告栏找到一份保姆的工作,当晚,萨曼莎的好友梅根(格蕾塔·葛韦格 Greta G erwig 饰)送她前往雇主家面试。梅根对这份工作颇有顾忌,而萨曼莎似乎急于赚钱,全不在意。
  雇主乌尔曼夫妇住在荒郊野外的一幢老式别墅中,这里没有小孩需要照看,文森特·乌尔曼先生(汤姆·诺南 Tom Noonan 饰)要为他生病的母亲找一位护理人员。萨曼莎起初惴惴不安,但看在钱的份上她最终选择留在这里。而她将为这个选择后悔莫及……
Video
ID                                       : 1
Format                                   : AVC
Format/Info                              : Advanced Video Codec
Format profile                           : [email protected]
Format settings, CABAC                   : Yes
Format settings, ReFrames                : 4 frames
Codec ID                                 : V_MPEG4/ISO/AVC
Duration                                 : 1h 35mn
Bit rate                                 : 11.6 Mbps
Width                                    : 1 920 pixels
Height                                   : 1 080 pixels
Display aspect ratio                     : 16:9
Frame rate mode                          : Constant
Frame rate                               : 23.976 fps
Color space                              : YUV
Chroma subsampling                       : 4:2:0
Bit depth                                : 8 bits
Scan type                                : Progressive
Bits/(Pixel*Frame)                       : 0.233
Stream size                              : 7.53 GiB (86%)
Writing library                          : x264 core 80 r1373 4322f63
Encoding settings                        : cabac=1 / ref=4 / deblock=1:-3:-3 / analyse=0x3:0x113 / me=umh / subme=9 / psy=1 / psy_rd=1.0:0.1 / mixed_ref=1 / me_range=32 / chroma_me=1 / trellis=2 / 8x8dct=1 / cqm=2 / deadzone=21,11 / fast_pskip=0 / chroma_qp_offset=-2 / threads=12 / sliced_threads=0 / nr=0 / decimate=1 / mbaff=0 / constrained_intra=0 / bframes=3 / b_pyramid=2 / b_adapt=2 / b_bias=0 / direct=3 / wpredb=1 / wpredp=2 / keyint=250 / keyint_min=25 / scenecut=40 / rc_lookahead=50 / rc=2pass / mbtree=1 / bitrate=11588 / ratetol=2.0 / qcomp=0.70 / qpmin=10 / qpmax=51 / qpstep=4 / cplxblur=20.0 / qblur=0.5 / vbv_maxrate=50000 / vbv_bufsize=50000 / ip_ratio=1.40 / aq=1:1.00
Language                                 : English
Default                                  : Yes
Forced                                   : No
Audio
ID                                       : 2
Format                                   : DTS
Format/Info                              : Digital Theater Systems
Mode                                     : 16
Format settings, Endianness              : Big
Codec ID                                 : A_DTS
Duration                                 : 1h 35mn
Bit rate mode                            : Constant
Bit rate                                 : 1 509 Kbps
Channel(s)                               : 6 channels
Channel positions                        : Front: L C R, Side: L R, LFE
Sampling rate                            : 48.0 KHz
Bit depth                                : 24 bits
Compression mode                         : Lossy
Stream size                              : 1.00 GiB (12%)
Language                                 : English
Default                                  : Yes
Forced                                   : No
Text
ID                                       : 3
Format                                   : UTF-8
Codec ID                                 : S_TEXT/UTF8
Codec ID/Info                            : UTF-8 Plain Text
Language                                 : English
Default                                  : No
Forced                                   : No

精彩剧照


                                       

蓝光高清网提示您 点击下方附件名称 马上开始下载



温馨提示:
本站资源优先使用迅雷下载,迅雷会员下载,速度基本可以跑满宽带
如果遇到无资源或者版权问题无法下载,推荐使用115网盘离线下载(点击查看115网盘离线下载教程


  • 该资源需要您回复以后 刷新网页进行下载操作

  • 1、The.House.of.the.Devil.2009.1080p.BluRay.x264.DTS-FGT.torrent 88KB 已下载 0 次

加入蓝光高清网VIP会员  无限制下载本站所有资源---点此加入

资源下载、资源播放、字幕使用、无法下载等常见问题---点这里

回复

使用道具 举报

懒得打字嘛,点击右侧快捷回复
高级模式
B Color Image Link Quote Code Smilies 上传

本版积分规则

关注0

粉丝0

帖子69274

发布主题
最新电影 论坛
广告位
联系我们
点击这里联系客服

服务时间:
周一到周日8:00-23:30

  • 打开微信扫一扫
    关注公众号

  • 手机QQ扫一扫
    添加客服

Archiver手机版蓝光高清网 ( 渝ICP备18006373号-2 )|网站地图

Powered by Discuz! X3.4  © 2001-2013 Comsenz Inc.