[喜剧] 落跑新娘/逃跑的新娘/走佬俏佳人 Runaway.Bride.1999.1080p.BluRay.x264.DD5.1-FGT 7.43GB

[复制链接]
蓝鸟VIP会员 永久VIP 发表于 2019-8-22 00:31:09 | 显示全部楼层 |阅读模式 打印 上一主题 下一主题

马上注册,轻松下载,海量资源,让你轻松玩转社区。

您需要 登录 才可以下载或查看,没有帐号?立即注册

x


◎译  名 落跑新娘/逃跑的新娘/走佬俏佳人
◎片  名 Runaway Bride
◎年  代 1999
◎国  家 美国
◎类  别 喜剧/爱情
◎语  言 英语
◎上映日期 1999-07-30
◎IMDb评分  5.4/10 from 66,942 users
◎IMDb链接  http://www.imdb.com/title/tt0163187/
◎豆瓣评分 6.9/10 from 17,838 users
◎豆瓣链接 http://movie.douban.com/subject/1299922/
◎片  长 116 分钟
◎导  演 盖瑞·马歇尔 Garry Marshall
◎主  演 朱莉娅·罗伯茨 Julia Roberts
      理查·基尔 Richard Gere
      琼·库萨克 Joan Cusack
      赫克托·埃里仲杜 Hector Elizondo
◎简  介
  艾克(理查?基尔 Richard Gere 饰)是一名专栏记者,他的妻子就是顶头上司。然而,这并没有给他带来多少好运气,相反,和妻子性格不合离婚后,因这层关系艾克过得更加抑郁。一次偶然,艾克在酒吧里听闻了马里兰州一名女子玛琪(朱莉娅?罗伯茨 Julia Roberts 饰)三次踏上红地毯时临阵脱逃的故事。他对这件事深感兴趣,并将其写成了专栏。
  当艾克去到实地采访当地人时,没想到人们普遍对他的做法感到很愤怒。而即将第四次踏上红地毯的事件主人公玛琪因为看了艾克的专栏后大感尴尬,第四次临阵逃脱。玛琪认为是艾克害惨了自己,决定以牙还牙。
Video
ID                                       : 1
Format                                   : AVC
Format/Info                              : Advanced Video Codec
Format profile                           : [email protected]
Format settings, CABAC                   : Yes
Format settings, ReFrames                : 4 frames
Codec ID                                 : V_MPEG4/ISO/AVC
Duration                                 : 1h 56mn
Bit rate                                 : 8 504 Kbps
Width                                    : 1 920 pixels
Height                                   : 816 pixels
Display aspect ratio                     : 2.35:1
Frame rate mode                          : Constant
Frame rate                               : 23.976 fps
Color space                              : YUV
Chroma subsampling                       : 4:2:0
Bit depth                                : 8 bits
Scan type                                : Progressive
Bits/(Pixel*Frame)                       : 0.226
Stream size                              : 6.76 GiB (91%)
Writing library                          : x264 core 98 r1649 c54c47d
Encoding settings                        : cabac=1 / ref=4 / deblock=1:-2:-1 / analyse=0x3:0x113 / me=umh / subme=10 / psy=1 / psy_rd=1.00:0.20 / mixed_ref=1 / me_range=32 / chroma_me=1 / trellis=2 / 8x8dct=1 / cqm=0 / deadzone=21,11 / fast_pskip=0 / chroma_qp_offset=-3 / threads=12 / sliced_threads=0 / nr=0 / decimate=0 / interlaced=0 / constrained_intra=0 / bframes=3 / b_pyramid=2 / b_adapt=2 / b_bias=0 / direct=3 / weightb=1 / weightp=2 / keyint=250 / keyint_min=25 / scenecut=40 / intra_refresh=0 / rc_lookahead=60 / rc=2pass / mbtree=1 / bitrate=8504 / ratetol=1.0 / qcomp=0.60 / qpmin=10 / qpmax=51 / qpstep=4 / cplxblur=20.0 / qblur=0.5 / vbv_maxrate=50000 / vbv_bufsize=50000 / ip_ratio=1.40 / aq=1:1.00 / nal_hrd=none
Language                                 : Russian
Default                                  : Yes
Forced                                   : No
Audio
ID                                       : 2
Format                                   : AC-3
Format/Info                              : Audio Coding 3
Mode extension                           : CM (complete main)
Format settings, Endianness              : Big
Codec ID                                 : A_AC3
Duration                                 : 1h 56mn
Bit rate mode                            : Constant
Bit rate                                 : 640 Kbps
Channel(s)                               : 6 channels
Channel positions                        : Front: L C R, Side: L R, LFE
Sampling rate                            : 48.0 KHz
Bit depth                                : 16 bits
Compression mode                         : Lossy
Stream size                              : 533 MiB (7%)
Language                                 : English
Default                                  : Yes
Forced                                   : No

精彩剧照


                                       

蓝光高清网提示您 点击下方附件名称 马上开始下载



温馨提示:
本站资源优先使用迅雷下载,迅雷会员下载,速度基本可以跑满宽带
如果遇到无资源或者版权问题无法下载,推荐使用115网盘离线下载(点击查看115网盘离线下载教程


  • 该资源需要您回复以后 刷新网页进行下载操作

  • 1、Runaway.Bride.1999.1080p.BluRay.x264.DD5.1-FGT.torrent 75KB 已下载 0 次

加入蓝光高清网VIP会员  无限制下载本站所有资源---点此加入

资源下载、资源播放、字幕使用、无法下载等常见问题---点这里

回复

使用道具 举报

懒得打字嘛,点击右侧快捷回复
高级模式
B Color Image Link Quote Code Smilies 上传

本版积分规则

关注0

粉丝0

帖子69282

发布主题
最新电影 论坛
广告位
联系我们
点击这里联系客服

服务时间:
周一到周日8:00-23:30

  • 打开微信扫一扫
    关注公众号

  • 手机QQ扫一扫
    添加客服

Archiver手机版蓝光高清网 ( 渝ICP备18006373号-2 )|网站地图

Powered by Discuz! X3.4  © 2001-2013 Comsenz Inc.