游客您好
第三方账号登陆
  • 点击联系客服

    在线时间:9:00-18:00

    客服QQ

    1371333023

    电子邮件

    lanniao@1080pro.net
  • 烧友之家APP

    随时掌握烧友资讯

  • 扫描二维码

    关注微信公众号

推荐阅读
蓝鸟
未知星球 | 未知职业
  • 关注0
  • 粉丝2
  • 帖子93936
精选帖子
开启左侧

野战排 4K.Platoon.1986.2160p.AMZN.WEB-DL.x265.10bit.HDR10Plus.DTS-HD.MA.5.1-4k电影下载—15.21 GB

[复制链接]
蓝鸟 发表于 2021-5-3 21:32:44 | 显示全部楼层 |阅读模式 打印 上一主题 下一主题
野战排
上映时间:更早
类型:动作 剧情 战争 
地区:美国 
导演:奥利佛·斯通
主演:威廉·达福 / 查理·辛 / 汤姆·贝伦杰 / 凯斯·大卫 / 凯文·狄龙
画质标准:4K HDR  封装音轨:DTS-HD.MA 5.1 
豆瓣评分:8.2分

加入蓝光高清网,轻松下载最新4k资源

您需要 登录 才可以下载或查看,没有帐号?立即注册

x
简       介
+ m' E2 v  E: o& C/ O4 C/ G5 D  }4 }
! _# B$ M# J! R! |  G1 L
  泰勒(查理•辛 Charlie Sheen 饰)是越战期间的一名美国大学生,他前往越南前线去服兵役,被分到了一个步兵部队。部队里有两个人一直对他影响颇大——伊莱亚斯(威廉•达福 Willem Dafoe 饰)和巴恩斯(汤姆•贝伦杰 Tom Berenger 饰)。他们两人对战争的看法截然不同,前者不忍残杀无辜,而后者却杀人如麻,泰勒心里非常迷惑,到底谁对战争的看法才是正确。% D! \' `3 O/ O" P1 w0 a% c  a
  巴恩斯展开了一场残忍的屠杀,越南整条村落都流血成河。伊莱亚斯力劝好友不要如此残暴,却遭致二人关系的裂缝。巴恩斯更怀疑伊莱亚斯向上司打小报告,友谊变为妒恨。于是,在一次丛林战争中,他背着所有人,向伊莱亚斯扣下了扳机。
, D% j7 }1 N( D: X: T+ Q7 A2 }  泰勒却洞察了这一切,他心里终于有了答案。
& f1 N) W# K- L" K/ \4 W

8 q+ V) d. Y- f( L8 z5 ~! y
: o  U2 a4 W# [% ~, Q
影片参数% k+ e( P+ A/ b4 V: x/ B7 W
杀戮战场(港) / 前进高棉(台)/野战排4K.Platoon.1986.2160p.AMZN.WEB-DL.x265.10bit.HDR10Plus.DTS-HD.MA.5.1-4k电影信息" z1 [: D& e, A3 l0 r
Video. B% d4 k- q% _  m. L
ID : 1
4 y4 l, z% N! [2 ~/ T; @Format : HEVC* Z) {: c4 w3 n8 \+ `5 |
Format/Info : High Efficiency Video Coding
; i, D4 a+ e9 o* k) |  R# KFormat profile : Main 10@L5@Main- P6 l8 @( B2 r7 o0 C9 j# K0 [
HDR format : SMPTE ST 2094 App 4, Version 1, HDR10+ Profile B compatible0 E$ T7 r# u- X6 W/ P  c* m0 u
Codec ID : V_MPEGH/ISO/HEVC- C: `" O2 s: O/ L* |6 J: m2 A
Duration : 1 h 59 min
* F4 D# c( e* b# U+ c) Z! DBit rate : 14.9 Mb/s
& W; G7 y; [0 ?# _Width : 3 840 pixels
* W/ g+ W- J; f, oHeight : 2 080 pixels
0 c/ y$ d" y0 i0 ?6 MDisplay aspect ratio : 1.85:1
6 N+ b' O! Q6 m+ _- @% @" QFrame rate mode : Constant4 F* c0 o$ ^" D2 Y. P4 I8 n
Frame rate : 23.976 (24000/1001) FPS$ [; l) m2 s# p* r% G/ `5 R0 `4 B
Color space : YUV8 S4 B' k# i# D0 M3 W2 ?) A% p
Chroma subsampling : 4:2:0
) c+ q% e, k4 A( gBit depth : 10 bits9 y6 T( Z- t* F8 S' k4 g
Bits/(Pixel*Frame) : 0.078! V$ p% D) x  J
Stream size : 12.5 GiB (82%)7 u2 l! [  n7 F, Y4 C4 U, L& J
Language : English
9 i* c: m' S4 O+ K# vDefault : Yes
0 B; j- {8 K& H& w2 L4 s% sForced : No5 @" j* p2 O- H  O( r
Color range : Limited
. L: Q# C0 k# [2 M& EColor primaries : BT.2020
/ E0 e9 W# T, ~1 H4 F. o' XTransfer characteristics : PQ7 G) \2 }1 l/ w6 o2 M3 K' h
Matrix coefficients : BT.2020 non-constant
' z7 \( Q+ Q9 y- k: Q% @Mastering display color primaries : BT.2020
0 q9 Y: h2 H# w; AMastering display luminance : min: 0.0050 cd/m2, max: 1000 cd/m2$ X# ^' V. [% J2 B4 {
Maximum Content Light Level : 999 cd/m24 y* O# F' M) V
Maximum Frame-Average Light Level : 738 cd/m2
8 B2 U! M; x: t+ S
, m% _8 U& i) Z. G: H2 `5 n
7 |% ?7 W  d! R' Q% G- h
Audio #1
8 \' P0 c: @" A" X1 W0 e1 X' eID : 2
, j4 q' G: n+ P2 ~) m7 WFormat : DTS XLL
; u* L# k0 a3 [Format/Info : Digital Theater Systems, @# d8 ?. s( P) F1 ^# z
Commercial name : DTS-HD Master Audio" W8 b& F. G+ R5 K5 i
Codec ID : A_DTS/ l2 x: x  }6 t% ?- D
Duration : 1 h 59 min: T8 g' e. K$ w! j
Bit rate mode : Variable
0 E9 f7 t: i  u% J$ {Bit rate : 2 571 kb/s
" B; p$ k+ r2 L' jChannel(s) : 6 channels
2 S' ^1 j, n9 _5 i/ mChannel layout : C L R Ls Rs LFE
" M! c! R: Z8 E* Z' VSampling rate : 48.0 kHz/ S! U0 k7 ~. x1 i) g
Frame rate : 93.750 FPS (512 SPF)
2 g2 q+ T/ t$ J8 c4 S1 DBit depth : 24 bits
# \6 Y8 ]+ e7 Z( jCompression mode : Lossless2 h+ E$ U1 B8 `( E, {
Stream size : 2.15 GiB (14%)$ E5 E% m& d1 H* `, h5 d
Title : DTS-HD MA 5.19 g* G8 B6 z  C# t  c  [
Language : English8 h/ ^* w* l* y, G
Default : Yes
2 O: i, j8 ^+ i! JForced : No
4 a% b4 v5 M3 D3 h+ A( V$ [1 x4 q4 O4 j! u( c- u( k! g% ~# i

: X( R. _. ^8 P3 K/ K+ O" x4 h2 s1 KAudio #2
, N7 P4 U0 z( uID : 3+ L: o3 z! i" _* a( F( Q# b6 n. y. [
Format : E-AC-3
8 e% T- e5 S) j8 J' rFormat/Info : Enhanced AC-3
. |; N- _* ^( D( }Commercial name : Dolby Digital Plus/ {) z# p6 [, f- F7 Y% ]8 S/ {3 R- h& }
Codec ID : A_EAC33 }4 W4 c/ _$ }: E0 a$ `
Duration : 1 h 59 min
( |% e3 K2 x8 O# K4 Z2 ]Bit rate mode : Constant7 O- ~6 x3 M8 E+ i
Bit rate : 640 kb/s
4 S* e' B; R9 D- _  c9 e* xChannel(s) : 6 channels
  ^+ V! Z" C  UChannel layout : L R C LFE Ls Rs
* D9 Z/ Q- |( i6 _1 x; M1 ESampling rate : 48.0 kHz
: W/ ~# V# ]3 s  e2 ~Frame rate : 31.250 FPS (1536 SPF)
  q( H3 }: f' G4 U  [- c  qCompression mode : Lossy% N# |0 @1 L8 c8 v; B1 e) @
Stream size : 549 MiB (4%)* ]+ ^0 C1 G7 d. f/ i4 g$ q
Title : DDP 5.1  Q/ O! V2 ?# ?) g1 m9 i1 y- ?
Language : English. K, p1 S& S* h7 F. {1 n
Service kind : Complete Main; N: k  A% z- M4 p9 W
Default : No
- F9 Q' }2 w2 w/ h8 pForced : No
) G  ]% g, V5 t& k7 K+ T* D- |! b0 y4 c
) j9 R4 \% Y8 p
Text: w" Q  A, M# N' P- @5 H) z2 N/ ^
ID : 4
2 ^4 C% |/ T& M9 g+ a$ C4 aFormat : UTF-8
$ c) U, S/ W! nCodec ID : S_TEXT/UTF8
" V( H# O5 t# _; W& P0 Z( eCodec ID/Info : UTF-8 Plain Text
2 ^) N2 T0 D4 C# I. KDuration : 1 h 54 min
; X! d$ B/ V2 q' k/ h+ ]' nBit rate : 59 b/s
0 z2 k( p: S0 Y7 L$ BCount of elements : 1620
) n6 _) O5 j. d9 _Stream size : 49.4 KiB (0%): ?: i4 u: @) Y5 ?8 q5 H5 w
Title : English0 X  L( @# W3 r4 T
Language : English( ^4 Y) Y5 ?) V: \( L
Default : No
9 e: a" K$ ?& M, q1 [Forced : No9 M& E7 b; L  h. X6 {/ v3 W

) X9 w. r* k# c  F: \
) ~- Q  D( y+ a7 d
Menu) A, z: H/ z7 V0 r+ \0 W
00:00:00.000 : Chapter 01
7 E& f  L# e$ e+ V+ T& Y00:08:20.958 : Chapter 029 ^+ T, q; E3 r, X2 N
00:18:49.545 : Chapter 03
# ]. l( Y# `) U, ^4 n& z$ A; _00:30:06.679 : Chapter 04
- a; R- a* J6 G/ D: g00:36:37.278 : Chapter 05
4 L' y+ p7 y6 Q3 Y7 Y0 z; o8 E00:45:15.838 : Chapter 06: a$ ], b7 V7 {' u2 ~6 C; Y$ G3 i. D9 P
00:55:55.977 : Chapter 078 p9 r  ^' c- h5 b1 ^
01:04:51.554 : Chapter 08
6 j( H2 P9 _) @, h5 y5 _3 S01:15:32.945 : Chapter 09
- v( p9 }# x6 x" e3 i; `01:26:48.494 : Chapter 10, t( @7 K1 S8 Q0 `( W5 a" V
01:37:29.051 : Chapter 11
: Y( [% b+ [; a+ Y( f( ~( H01:46:55.283 : Chapter 12

  s7 b2 K  E, b) ~, Z1 G
0 ?* T3 G' t& _* m+ j蓝光高清网提示您  点击下方附件名即可开始下载7 ?. r  l) F: W' f: ^! U
6 [! T; y$ |! P; k

. o' I% y5 q- @) _4 e6 @* M- E杀戮战场(港) / 前进高棉(台)/野战排4K.Platoon.1986.2160p.AMZN.WEB-DL.x265.10bit.HDR10Plus.DTS-HD.MA.5.1-4K电影下载4 m! ~9 ~1 ~) ]$ x5 t( ?$ {0 q
1 P) u6 G, ~# Q% Q' ^
野战排 4K.Platoon.1986.2160p.AMZN.WEB-DL.x265.10bit.HDR10Plus.DTS-HD.MA.5.1【4K HDR 15.21 GB】
9 {, I! ~- w7 u' d 野战排4K.Platoon.1986.2160p.AMZN.WEB-DL.x265.10bit.HDR10Plus.DTS-HD.MA.5..torrent (文件大小:76.71 KB)
加入蓝光高清网VIP会员  无限制下载本站所有资源---点这里

资源下载、资源播放、字幕使用、无法下载等常见问题---点这里
回复

使用道具 举报

您需要登录后才可以回帖 登录 | 立即注册

本版积分规则

烧友之家(蓝光高清网)本站内容部分由用户自主分享和转载自互联网,转载目的在于传递更多信息,并不代表本网赞同其观点和对其真实性负责。 如有侵权、违反国家法律政策行为,请联系我们,我们会第一时间及时清除和处理!
蓝光高清网 综合资讯平台
关注我们
  • 官方微信公众号
  • 扫码下载官方APP

X3.4 Licensed© 2001-2013 蓝光高清网 烧友之家APP |网站地图