游客您好
第三方账号登陆
  • 点击联系客服

    在线时间:9:00-18:00

    客服QQ

    1371333023

    电子邮件

    lanniao@1080pro.net
  • 烧友之家APP

    随时掌握烧友资讯

  • 扫描二维码

    关注微信公众号

推荐阅读
蓝鸟
未知星球 | 未知职业
  • 关注0
  • 粉丝2
  • 帖子93937
精选帖子
开启左侧

彼得卢 4k Peterloo.2018.2160p.AMZN.WEB-DL.x265.10bit.HDR10Plus.DTS-HD.MA.5.1电影下载—18.79 GB

[复制链接]
蓝鸟 发表于 2021-5-4 15:21:01 | 显示全部楼层 |阅读模式 打印 上一主题 下一主题
彼得卢
上映时间:
类型:剧情 历史 
地区:英国 
导演:迈克·李
主演:玛克辛·皮克 / 罗里·金尼尔 / 蒂姆·麦克纳尼 / 戴维·鲍姆伯 / 里奥·比尔
画质标准:4K HDR  封装音轨:DTS-HD.MA 5.1 Dolby Atmos 
豆瓣评分:6.9分

加入蓝光高清网,轻松下载最新4k资源

您需要 登录 才可以下载或查看,没有帐号?立即注册

x
简       介. w% R/ v- s, a: ]% O0 ?
2 U& W2 E' d. H% H  N
  该片故事发生在英国关键历史时期,彼时英国军队攻击一大批曼彻斯特要求议会改革的抗议者,导致15人死亡,几百人受伤,引起全英震惊。英国《卫报》也受此次事件影响而诞生。亚马逊负责本片北美发行。
9 ?0 q! i& G" P
& ?7 ~2 z" W% }7 s" b

2 l# S" y) K4 T, P影片参数# s& i' s& F, y* o
彼得卢:血染曼彻斯特(港) / 彼得卢:人民之声(台) / 彼铁卢/彼得卢4k Peterloo.2018.2160p.AMZN.WEB-DL.x265.10bit.HDR10Plus.DTS-HD.MA.5.1电影信息
& u( g! Y' p+ YVideo' d3 P  \( `) V* A
ID : 1& O/ [! b! Y# f! |7 t% G
Format : HEVC
$ p8 e8 z4 @# E) MFormat/Info : High Efficiency Video Coding
0 i/ l: \7 W1 ]Format profile : Main 10@L5@Main6 b# I" h8 h5 |5 X
HDR format : SMPTE ST 2094 App 4, Version 1, HDR10+ Profile B compatible. w) [9 n0 H: x5 W8 g
Codec ID : V_MPEGH/ISO/HEVC
1 _! y$ b: a( m/ T; |; d! F: w# IDuration : 2 h 33 min
9 Q; S2 X3 O+ B3 ]2 K3 F7 MBit rate : 14.9 Mb/s2 E7 u! `. j/ b" W
Width : 3 840 pixels
! K0 [& |: k1 ^6 XHeight : 2 080 pixels
4 }# F" t0 `! S3 N& @6 M2 L* [' t8 O) cDisplay aspect ratio : 1.85:1
8 \# Q+ p, w2 R$ k/ l5 LFrame rate mode : Constant
8 R: T; |, L7 ?/ O: I# PFrame rate : 24.000 FPS* F1 H9 Q" Q; U) \# E; }
Color space : YUV
6 ]$ J; V7 ~8 s  e- D8 d: YChroma subsampling : 4:2:0* f4 W) P* Y, l7 O
Bit depth : 10 bits* A" o  q8 z* d( D
Bits/(Pixel*Frame) : 0.078
* g! o( k7 S! e! O5 }+ QStream size : 16.0 GiB (85%)
# f: I9 E3 c- T7 F9 y( t9 c7 qLanguage : English0 d* E6 ^8 b$ a0 U2 F
Default : Yes# u2 q* U. y) J  O3 S
Forced : No& F6 S( c! b$ n0 U8 P8 r' t" C
Color range : Limited
# e$ |7 E- e- d; X) e* mColor primaries : BT.2020
9 J& G- G4 [& I# U  M1 w; oTransfer characteristics : PQ. s$ f( X- z) r1 _2 a' M4 w
Matrix coefficients : BT.2020 non-constant/ U: f1 ^7 o% w, ^9 Y( L+ J' j
Mastering display color primaries : Display P3
3 P# x" h4 a1 yMastering display luminance : min: 0.0050 cd/m2, max: 1000 cd/m20 D* Z2 U, w4 {. ^: x- ^
Maximum Content Light Level : 1185 cd/m2+ {* B, s% g& t. D2 r
Maximum Frame-Average Light Level : 195 cd/m2
9 p8 C$ g! o5 D$ l* Y$ ^. Y7 K- I( }* n$ o( O; U1 r" r2 n

: f# p* l5 w0 d. _5 p6 n" ~1 ]Audio #1/ w8 m, P- o+ b
ID : 2
; R, \9 ]6 {. |. A$ `* PFormat : DTS XLL- e* R0 w4 K) g
Format/Info : Digital Theater Systems
9 |* ^" B1 z+ UCommercial name : DTS-HD Master Audio
" r3 \0 @( m; j3 ^: S  cCodec ID : A_DTS! U) Q) ?( \, ?! U; {! j
Duration : 2 h 33 min
( j6 ^  L- _( FBit rate mode : Variable! e  [4 S1 f( s) b7 H( S# p
Bit rate : 1 926 kb/s
! R- O( p& U( [  {; J5 XChannel(s) : 6 channels
  @* T1 m- J' a: V2 YChannel layout : C L R Ls Rs LFE
1 p! e) C1 I5 n0 _' j; S3 OSampling rate : 48.0 kHz
! p% E7 X4 h1 m% Z# J$ j, T0 pFrame rate : 93.750 FPS (512 SPF)
, N& u# Y- r; ]7 i1 C6 f- nBit depth : 16 bits
9 ]: i0 _2 o# ]4 n* ECompression mode : Lossless1 n% w$ P, `: d' p+ I
Delay relative to video : 2 ms* B, N( H2 M8 j. w5 L8 E+ y6 b* J
Stream size : 2.07 GiB (11%)0 ?/ Y( e4 ^1 z# t: P
Title : DTS-HD MA 5.1& f1 s7 ^1 _  w0 v" M
Language : English
7 Q# X9 j6 R( z3 g% EDefault : Yes# Z0 `) |( N+ [6 v
Forced : No
, \" a( N& B+ u/ [( \" I
' Z2 R' u1 j/ X5 }( i) O3 O

6 s" b$ u. D% y. G) AAudio #2
1 {9 O8 s. q, MID : 3
$ X1 i3 x3 G( u+ W. mFormat : E-AC-3
" ]' l+ T# X; U2 p2 F2 T* AFormat/Info : Enhanced AC-33 q3 |# W/ }, P& R- |) W+ ~% _6 R
Commercial name : Dolby Digital Plus. L! [; X" n! ~% b4 {
Codec ID : A_EAC30 B* M' ?! L3 D; d. p
Duration : 2 h 33 min" `, K: y! I. z! j
Bit rate mode : Constant# C5 V$ q$ @0 o1 o
Bit rate : 640 kb/s5 b1 }( ]2 I3 Z  u/ F& r
Channel(s) : 6 channels
; L  r8 X6 j) O$ ^, IChannel layout : L R C LFE Ls Rs
9 }+ s3 L( ?$ m6 vSampling rate : 48.0 kHz
$ g; n/ U4 K* {Frame rate : 31.250 FPS (1536 SPF)$ Y  k0 [; Q, y
Compression mode : Lossy
" B& u7 r5 l0 PStream size : 705 MiB (4%)
4 @0 L: O) P8 G; oTitle : DDP 5.1
4 N8 [+ `0 ~7 H3 i9 BLanguage : English: u' v8 u. j$ O5 H
Service kind : Complete Main% n8 P# x/ M- M9 q; I
Default : No
- K6 L6 X; |- MForced : No: e: M# q1 T1 N" N1 r1 ^3 _3 j+ O

* a7 c7 _* o2 F6 m3 I7 b7 t/ r: m2 _
1 U( {0 M! g' t- `
Text, [- m! k/ \& ]2 P9 q8 C
ID : 46 F* B; _7 T  j0 ]2 `
Format : UTF-8
$ e: S7 Q7 H2 `2 H0 y- uCodec ID : S_TEXT/UTF8! P1 n) r/ `+ \) d  ~
Codec ID/Info : UTF-8 Plain Text
* a! M1 [' X  bDuration : 2 h 32 min
" ]6 [! G  j- k; w$ P7 g) [2 a3 UBit rate : 70 b/s
, J6 v" N0 o0 F* x1 bCount of elements : 2553
# k: U! m7 g4 ^/ o' YStream size : 79.2 KiB (0%)
2 O0 e3 L; f2 c2 ?. y7 kTitle : English
0 }# w, {( j4 n; ZLanguage : English9 ], `  y* |) t  {* X, o
Default : Yes
/ A7 f  r) M" y7 B1 f9 @. l+ TForced : No
, S) a5 a; m8 `* r. G
6 T  k) ?6 H4 l6 x' H
) o% I5 _9 F9 ?, k3 f' f, H1 d; r+ K
Menu
9 g! ^  t! V. b4 q8 Q' d00:00:00.000 : Chapter 1$ `% c. n! _( q& @4 l' K
00:08:42.958 : Chapter 2
' I: j( c6 H4 E/ s00:17:58.958 : Chapter 3
/ I. {# e* k8 i; h00:24:52.583 : Chapter 4
! y* S3 O% E) z3 [/ B00:33:35.333 : Chapter 5
0 }4 R) J* v- l) M0 h' F00:39:57.083 : Chapter 6/ {$ p6 M- S* o4 M( C& ?( @% b
00:49:11.458 : Chapter 7" U/ F" W0 O% a( ]
00:59:47.875 : Chapter 8( v  A( u0 _1 o
01:06:05.833 : Chapter 9' q& n' A3 G3 f4 [& d# W, ~1 K3 {
01:13:42.875 : Chapter 10  j2 S0 f; f; A* z, R, v
01:21:36.792 : Chapter 11# y5 N/ g7 e- N+ e# y
01:27:25.167 : Chapter 12
4 J( ~! z. G0 {8 u01:40:13.625 : Chapter 13- S+ |# X0 ?/ ^7 \& X  d
01:45:24.833 : Chapter 14
  x' Y, d* _% {# X9 ?- w9 `, N01:52:25.875 : Chapter 15
3 k/ o3 a( O. \$ p9 V01:59:04.250 : Chapter 16
9 |7 y3 E* F& ~- s% w- @02:06:52.167 : Chapter 17
  L% W' a0 `( B& G: P& y: @. s02:12:56.125 : Chapter 18$ k$ y; `1 H; y5 _" s
02:22:07.667 : Chapter 19) g0 h) ?8 J3 H9 S4 s- D
02:27:26.917 : Chapter 20
4 l, |3 w/ W& ~( K" o' }* ]
9 h/ h$ j$ g( ^6 \. S) d* o7 j' c" K
蓝光高清网提示您  点击下方附件名即可开始下载: X' p& `  U9 ^5 Z& y, [! N9 L

. p6 f! R( n1 _0 o& _
* k9 Z) t6 _+ t4 @: x& b
彼得卢:血染曼彻斯特(港) / 彼得卢:人民之声(台) / 彼铁卢/彼得卢4k Peterloo.2018.2160p.AMZN.WEB-DL.x265.10bit.HDR10Plus.DTS-HD.MA.5.1电影下载5 P, l& C9 M" `/ R% N7 N$ T

/ t1 v6 H, B; d0 M' L彼得卢 4k Peterloo.2018.2160p.AMZN.WEB-DL.x265.10bit.HDR10Plus.DTS-HD.MA.5.1【18.79 GB】
% p- d# i) w. [: J 彼得卢4k Peterloo.2018.2160p.AMZN.WEB-DL.x265.10bit.HDR10Plus.DTS-HD.MA.5.torrent (文件大小:94.61 KB)
加入蓝光高清网VIP会员  无限制下载本站所有资源---点这里

资源下载、资源播放、字幕使用、无法下载等常见问题---点这里
回复

使用道具 举报

精彩评论1

liyun80000手机认证 发表于 2021-5-5 10:35:07 | 显示全部楼层
谢谢分享
回复

使用道具 举报

您需要登录后才可以回帖 登录 | 立即注册

本版积分规则

烧友之家(蓝光高清网)本站内容部分由用户自主分享和转载自互联网,转载目的在于传递更多信息,并不代表本网赞同其观点和对其真实性负责。 如有侵权、违反国家法律政策行为,请联系我们,我们会第一时间及时清除和处理!
蓝光高清网 综合资讯平台
关注我们
  • 官方微信公众号
  • 扫码下载官方APP

X3.4 Licensed© 2001-2013 蓝光高清网 烧友之家APP |网站地图