游客您好
第三方账号登陆
  • 点击联系客服

    在线时间:9:00-18:00

    客服QQ

    1371333023

    电子邮件

    lanniao@1080pro.net
  • 烧友之家APP

    随时掌握烧友资讯

  • 扫描二维码

    关注微信公众号

推荐阅读
蓝鸟
未知星球 | 未知职业
  • 关注0
  • 粉丝2
  • 帖子93936
精选帖子
开启左侧

爱在记忆消逝前 4kThe.Leisure.Seeker.2017.2160p.BCORE.WEBDL.x265.10bit.HDR.DTS-HD.MA.5.1电影下载—58.12 GB

[复制链接]
蓝鸟 发表于 2021-5-4 15:26:45 | 显示全部楼层 |阅读模式 打印 上一主题 下一主题
爱在记忆消逝前
上映时间:2017年
类型:喜剧 爱情 冒险 
地区:法国 
导演:保罗·维尔齐
主演:海伦·米伦 / 唐纳德·萨瑟兰 / 简·默勒尼 / 克里斯蒂·米切尔 / 罗伯特·沃克·布兰乔德
画质标准:4K HDR  封装音轨:DTS-HD.MA 5.1 
豆瓣评分:8.2分

加入蓝光高清网,轻松下载最新4k资源

您需要 登录 才可以下载或查看,没有帐号?立即注册

x
简      介
, i7 X. W4 z+ r6 a. Z. b, H- ~- _& a0 T, t8 L

  @5 K8 v+ Z' X+ h1 e: W6 H2 N+ {6 U, e  该片改编自Michael Zadoorian的同名小说,讲述了一对患重病的老夫妻开着老旧的房车从马塞诸塞州出发前往海明威的故居,在旅途中回顾人生的故事。$ s3 i' W4 q  Q  D# ]
  约翰是一位文学教师和作家,海明威的死忠,尽管阿兹海默症已经让他的记忆越来越差,甚至会忘记妻子和儿女的名字,却依旧可以随口说出海明威的所有作品,《老人和海》更是他的钟爱。因为妻子艾拉患重病需要住院, 约翰就只能进入养老院,携手走过一辈子的二人面临永远分开的未来。于是,他们有了一个疯狂的决定,决心驾驶名叫“leisure seeker 求闲者”的房车,从马塞诸塞州一路南行,回顾70年代曾和孩子们一起度假的旅程,目的地是西锁岛key west 的海明威故居。

6 I) ~2 @; z: W' `/ ]6 G: R  ~) d' M, g
  J+ U$ [0 K3 u0 o/ `& w
影片参数
2 f6 h* V# u6 n
人生无限露营车(台) / 爱在记忆消失前 / 浮生偷闲 / 求闲者 / Ella & John - The Leisure Seeker/爱在记忆消逝前4kThe.Leisure.Seeker.2017.2160p.BCORE.WEBDL.x265.10bit.HDR.DTS-HD.MA.5.1电影信息  x& |, R' ~. c# p/ f2 n' A
Video/ D0 L$ H/ T' P, D
ID : 1: e3 {  e" e9 J; Q! P" d. S
Format : HEVC
+ V1 y- q) i  R; O( h2 @Format/Info : High Efficiency Video Coding
% ~% w$ \: a2 A3 v, o0 u. w( OFormat profile : Main 10@L5.2@High
8 O% _3 J7 g/ n5 Q0 d. ?HDR format : SMPTE ST 2086, HDR10 compatible
$ D# Y) ?- M0 q8 n5 g8 [Codec ID : V_MPEGH/ISO/HEVC
% J1 s4 E7 p! C4 s! j# X" xDuration : 1 h 52 min( v4 U6 W1 E- m+ A& t' J
Bit rate : 69.6 Mb/s
9 U0 l& Z4 G: D% D/ {. CWidth : 3 840 pixels$ d: J- v* [0 O& c4 {
Height : 2 160 pixels
( }3 U$ y6 H  v. ^Display aspect ratio : 16:9% s% R+ e' `7 n5 x, x1 K: ~
Frame rate mode : Constant
) B, W) g: c& r3 u5 zFrame rate : 23.976 (24000/1001) FPS: b5 ~3 v6 v6 f4 o" P9 r
Color space : YUV
/ \  @! {& S* u- A& j7 P6 dChroma subsampling : 4:2:0 (Type 2)- d8 B9 N7 t. }. N
Bit depth : 10 bits
4 D$ t: I5 [; Q7 V5 Q4 RBits/(Pixel*Frame) : 0.350+ z3 h+ e( F9 J, G+ F
Stream size : 54.5 GiB (94%)2 V' l8 w/ `/ w4 g
Language : English! M0 ~' A4 g! B$ g  Z
Default : Yes0 a1 ~) L. W0 k8 G0 |/ J2 x
Forced : No
' b4 o. R" q, r  E1 `7 CColor range : Limited1 @/ C+ s9 J( X8 m8 \3 T; R
Color primaries : BT.2020
& {. y. C* B! m/ ~9 Z6 V+ yTransfer characteristics : PQ
0 S' z( K. d; s9 ~. x; Q) @Matrix coefficients : BT.2020 non-constant) g1 e% F9 u. m: o- a1 P
Mastering display color primaries : Display P35 q) o3 R3 Z& M  u) S- T
Mastering display luminance : min: 0.0050 cd/m2, max: 4000 cd/m26 c9 k- Q- m4 D# k% u
Maximum Content Light Level : 942 cd/m24 G1 `- o4 h0 G. T3 i: Z
Maximum Frame-Average Light Level : 114 cd/m2
4 [% N# I3 K' p$ T0 b7 c
0 J* w& I, f4 h, ]& H! k

  s% E: q' b! p9 KAudio #1
- ~* l" g$ ]  k' K. eID : 2
" E. m: V* T! T. e2 L+ D* a& AFormat : DTS XLL4 ~1 d) j+ f- {* W
Format/Info : Digital Theater Systems8 u1 t2 [. J+ _: @
Commercial name : DTS-HD Master Audio% e+ g, R7 s% f8 V- X
Codec ID : A_DTS
( e  s! P' D, v& F3 C% `, NDuration : 1 h 52 min
1 A, l+ K$ _& x0 lBit rate mode : Variable
! g; `4 E4 E. ~/ n/ g# @7 A6 lBit rate : 3 155 kb/s
+ j$ y5 E# @  X! H. {Channel(s) : 6 channels7 F+ ~7 R1 P' K, z
Channel layout : C L R Ls Rs LFE
8 e  r: ]* M4 ~; d4 J% y  USampling rate : 48.0 kHz( Z4 I/ |1 C  Y" ^+ L
Frame rate : 93.750 FPS (512 SPF)# |/ D6 B+ Z3 L; i& T6 i
Bit depth : 24 bits
* Q  V) K! M- Q7 _* E3 UCompression mode : Lossless% }. X, R( J$ i$ v1 D& d
Delay relative to video : 5 ms* x" i/ j+ J6 w' I/ G. o" e
Stream size : 2.47 GiB (4%)
. _8 i4 I/ L  T: ~Title : DTS-HD MA 5.1, y- R! \- |7 e7 `
Language : English) E+ q8 }: H5 ^# w$ M& W. r
Default : Yes' }. B$ h( O0 r; h: ]0 {
Forced : No
0 ]$ [& l. \+ f, s5 ~3 a5 K, R6 C! I( i9 [6 X, d( o2 o' E$ m

! K# s) H" C4 w) H2 S3 h" F4 A: Q! BAudio #2
7 c6 P# h) N2 O  t) qID : 3* }/ Q/ L$ s. G( i  D1 [: r
Format : DTS
+ H9 c$ V5 m0 u# TFormat/Info : Digital Theater Systems$ S3 e* c) A  ?) I6 ~, N, o
Codec ID : A_DTS0 f1 F- f: J& b
Duration : 1 h 52 min
  {5 T7 O3 m: B  ?/ Q. R6 QBit rate mode : Constant
6 ~/ Z( p& m- @# z4 ^1 f. w6 O. }Bit rate : 768 kb/s" j' |! d: u" e6 n# \& h. d9 w
Channel(s) : 6 channels+ Z( x8 X! @1 T. }
Channel layout : C L R Ls Rs LFE
' m* b5 [& b- V& s7 f! wSampling rate : 48.0 kHz# x) b6 z5 I, B
Frame rate : 93.750 FPS (512 SPF)
; V  H" c2 W/ a  Y. m5 OBit depth : 24 bits
- o6 Z1 i* C( d+ M1 W. D; _- XCompression mode : Lossy
# Q# I. a# c6 d/ \9 N! S) @+ bStream size : 616 MiB (1%)
/ \$ P7 f- a! P# r( @Title : DTS 5.1
: S$ v# o) v* F8 P1 QLanguage : English/ V, M4 c/ K) Y- `6 t) O3 D9 o
Default : No& R. _7 x+ v( d2 r6 L1 S" i, J
Forced : No
2 }* g# l! z! l. Q
! T$ _/ N* [4 q: H/ a" O3 b2 u
/ i, _$ t2 u7 T9 A
Audio #3! q' Q& E( D" C. j
ID : 4, g% i- F. R4 f
Format : AC-3
; M& {$ s; j( zFormat/Info : Audio Coding 3
* {+ P3 ~1 L( U* I5 c+ V, kCommercial name : Dolby Digital1 G  b6 H9 T" h6 I+ u3 F9 a2 U
Codec ID : A_AC3: `4 k* |- b5 Y8 {
Duration : 1 h 52 min5 T( s% e, m! m, c
Bit rate mode : Constant! c1 z3 T7 M, S3 O
Bit rate : 640 kb/s
% A, O) `/ \6 F9 C# BChannel(s) : 6 channels: C/ j9 Z: f' @# o- i
Channel layout : L R C LFE Ls Rs, G6 S, ]* }' a2 w2 g
Sampling rate : 48.0 kHz" R  s/ z- s0 h8 Q; _# i9 _4 e
Frame rate : 31.250 FPS (1536 SPF)
, @3 I+ V7 C- z6 bCompression mode : Lossy/ W# Y# B5 Q# x( T
Stream size : 514 MiB (1%)( _3 ^6 J+ e8 P
Title : DD 5.1( a# \7 z9 f4 e: U# y3 V) `
Language : English
/ D; I2 f3 A9 [0 w9 {, _3 q6 uService kind : Complete Main
) A( {, Q' h% x- w7 zDefault : No
! A, E9 ^7 _( lForced : No
$ U9 e8 N& B* e7 O8 H% y
9 h8 Y# w) I' ?% Y

' V5 N% p4 _+ E% ~  I3 |Text6 O5 V" e) V4 L" n. Y0 J
ID : 5
+ V' E/ J1 \0 c9 c, \9 R* R* P8 @Format : UTF-89 }' S/ \7 J+ |" J& W! g6 _
Codec ID : S_TEXT/UTF8
9 G# e) S4 v. K3 J! Q2 }; QCodec ID/Info : UTF-8 Plain Text
# a, ^' D' F) Z/ dDuration : 1 h 48 min
- O6 `: K- Z- h3 `# c2 W' n+ [Bit rate : 70 b/s0 E) v0 q: H3 e& G4 K
Count of elements : 1860. O8 s! L' X7 H. G
Stream size : 55.7 KiB (0%)( M2 `; F# \# `1 Q! v* U7 g. M9 k# P5 F
Title : English-SRT. z7 L: t( R+ I' x) |: A& L& i9 ]. g
Language : English; q8 o/ H/ ]' \* ^) `( a* U" V- F0 f
Default : Yes
$ h3 E/ s5 q3 @) S( R& d/ vForced : No
# |% b4 v5 q' t. K  [4 s0 \

- I3 T! X8 A+ A# z) L1 s蓝光高清网提示您  点击下方附件名即可开始下载
% [0 x# T2 |. q5 K+ `( d* R; [6 o+ I
2 B. B, ~! ]' b8 i  H. e, [8 x( ~& G
人生无限露营车(台) / 爱在记忆消失前 / 浮生偷闲 / 求闲者 / Ella & John - The Leisure Seeker/爱在记忆消逝前4k The.Leisure.Seeker.2017.2160p.BCORE.WEB-DL.x265.10bit.HDR.DTS-HD.MA.5.1电影下载7 g$ z0 i9 ^9 {" K# l1 S
$ ~) L+ B) W6 R# A, P& @( H
爱在记忆消逝前4k The.Leisure.Seeker.2017.2160p.BCORE.WEB-DL.x265.10bit.HDR.DTS-HD.MA.5.1【58.12 GB】
; @! _3 R  T* {7 \% r2 P4 r 爱在记忆消逝前4k The.Leisure.Seeker.2017.2160p.BCORE.WEB-DL.x265.10bit.HD.torrent (文件大小:145.97 KB)
加入蓝光高清网VIP会员  无限制下载本站所有资源---点这里

资源下载、资源播放、字幕使用、无法下载等常见问题---点这里
回复

使用道具 举报

精彩评论2

bengoben手机认证 发表于 2021-5-4 21:09:39 | 显示全部楼层
打卡来了
回复

使用道具 举报

slj602手机认证 发表于 2021-5-6 14:44:25 | 显示全部楼层
系列名片
回复

使用道具 举报

您需要登录后才可以回帖 登录 | 立即注册

本版积分规则

烧友之家(蓝光高清网)本站内容部分由用户自主分享和转载自互联网,转载目的在于传递更多信息,并不代表本网赞同其观点和对其真实性负责。 如有侵权、违反国家法律政策行为,请联系我们,我们会第一时间及时清除和处理!
蓝光高清网 综合资讯平台
关注我们
  • 官方微信公众号
  • 扫码下载官方APP

X3.4 Licensed© 2001-2013 蓝光高清网 烧友之家APP |网站地图