[动作] 血之猎手/猎杀鬼世界 Rise.Blood.Hunter.2007.1080p.BluRay.x264.DTS-FGT 6.99GB

[复制链接]
蓝鸟VIP会员 永久VIP 发表于 2019-8-22 00:31:58 | 显示全部楼层 |阅读模式 打印 上一主题 下一主题

马上注册,轻松下载,海量资源,让你轻松玩转社区。

您需要 登录 才可以下载或查看,没有帐号?立即注册

x

?
◎译  名 血之猎手/猎杀鬼世界
◎片  名 Rise
◎年  代 2007
◎国  家 美国/新西兰
◎类  别 动作/恐怖/悬疑/惊悚
◎语  言 英语
◎上映日期 2007-06-01
◎IMDb评分  4.9/10 from 9,844 users
◎IMDb链接  http://www.imdb.com/title/tt0389328/
◎豆瓣评分 4.8/10 from 833 users
◎豆瓣链接 http://movie.douban.com/subject/2042936/
◎片  长 USA: 94 分钟/122 分钟(unrated DVD version)
◎导  演 塞巴斯蒂安·高蒂维斯 Sebastian Gutierrez
◎主  演 刘玉玲
      罗伯特·福斯特 Robert Forster
      卡梅隆·理查德森 Cameron Richardson
      卡拉·古奇诺 Carla Gugino
      Allan Rich
◎简  介
  亚裔女记者萨蒂?布雷克(刘玉玲 饰)是一名极为敬业的报社记者,偶然机会一则关于邪教组织的消息吸引了她的注意力。与此同时,洛杉矶接连发生数起少女绑架案,最终女孩都被弃尸街头。敏感的萨蒂直觉认为绑架案与该邪教组织有关,她以发生在韩国城的绑架案为切入点,开始探查背后真相,却不慎被邪教成员抓住,失去了性命。
  从停尸间再次醒来的萨蒂惊异于自己的死而复生,但不久她便发现,她已变成了嗜血如命的吸血鬼。在本性和人性间痛苦挣扎萨蒂决定摧毁邪教组织,为所有的受害者报仇……
Video
ID                                       : 1
Format                                   : AVC
Format/Info                              : Advanced Video Codec
Format profile                           : [email protected]
Format settings, CABAC                   : Yes
Format settings, ReFrames                : 4 frames
Codec ID                                 : V_MPEG4/ISO/AVC
Duration                                 : 1h 33mn
Bit rate                                 : 9 189 Kbps
Width                                    : 1 920 pixels
Height                                   : 1 080 pixels
Display aspect ratio                     : 16:9
Frame rate mode                          : Constant
Frame rate                               : 25.000 fps
Color space                              : YUV
Chroma subsampling                       : 4:2:0
Bit depth                                : 8 bits
Scan type                                : Progressive
Bits/(Pixel*Frame)                       : 0.177
Stream size                              : 5.86 GiB (84%)
Writing library                          : x264 core 133 r2334 a3ac64b
Encoding settings                        : cabac=1 / ref=4 / deblock=1:-1:-1 / analyse=0x3:0x113 / me=umh / subme=11 / psy=1 / psy_rd=1.00:0.20 / mixed_ref=1 / me_range=32 / chroma_me=1 / trellis=2 / 8x8dct=1 / cqm=0 / deadzone=21,11 / fast_pskip=0 / chroma_qp_offset=-3 / threads=12 / lookahead_threads=1 / sliced_threads=0 / nr=0 / decimate=0 / interlaced=0 / bluray_compat=0 / constrained_intra=0 / bframes=6 / b_pyramid=2 / b_adapt=2 / b_bias=0 / direct=3 / weightb=1 / open_gop=0 / weightp=2 / keyint=240 / keyint_min=24 / scenecut=40 / intra_refresh=0 / rc_lookahead=40 / rc=2pass / mbtree=0 / bitrate=9189 / ratetol=1.0 / qcomp=0.60 / qpmin=0 / qpmax=69 / qpstep=4 / cplxblur=20.0 / qblur=0.5 / vbv_maxrate=50000 / vbv_bufsize=62500 / nal_hrd=none / ip_ratio=1.40 / pb_ratio=1.30 / aq=1:1.00
Language                                 : English
Default                                  : Yes
Forced                                   : No
Audio
ID                                       : 2
Format                                   : DTS
Format/Info                              : Digital Theater Systems
Mode                                     : 16
Format settings, Endianness              : Big
Codec ID                                 : A_DTS
Duration                                 : 1h 33mn
Bit rate mode                            : Constant
Bit rate                                 : 1 509 Kbps
Channel(s)                               : 6 channels
Channel positions                        : Front: L C R, Side: L R, LFE
Sampling rate                            : 48.0 KHz
Bit depth                                : 16 bits
Compression mode                         : Lossy
Stream size                              : 1 009 MiB (14%)
Language                                 : English
Default                                  : Yes
Forced                                   : No
Text
ID                                       : 3
Format                                   : UTF-8
Codec ID                                 : S_TEXT/UTF8
Codec ID/Info                            : UTF-8 Plain Text
Language                                 : English
Default                                  : No
Forced                                   : No
Menu
00:00:00.000                             : en:00:00:00.000
00:07:38.400                             : en:00:07:38.400
00:14:07.400                             : en:00:14:07.400
00:19:15.920                             : en:00:19:15.920
00:24:58.640                             : en:00:24:58.640
00:32:13.360                             : en:00:32:13.360
00:36:07.360                             : en:00:36:07.360
00:42:11.840                             : en:00:42:11.840
00:49:00.240                             : en:00:49:00.240
00:55:54.720                             : en:00:55:54.720
01:01:07.920                             : en:01:01:07.920
01:04:52.320                             : en:01:04:52.320
01:10:10.880                             : en:01:10:10.880
01:14:34.880                             : en:01:14:34.880
01:20:36.960                             : en:01:20:36.960
01:29:17.720                             : en:01:29:17.720

精彩剧照


                                       

蓝光高清网提示您 点击下方附件名称 马上开始下载



温馨提示:
本站资源优先使用迅雷下载,迅雷会员下载,速度基本可以跑满宽带
如果遇到无资源或者版权问题无法下载,推荐使用115网盘离线下载(点击查看115网盘离线下载教程


  • 该资源需要您回复以后 刷新网页进行下载操作

  • 1、Rise.Blood.Hunter.2007.1080p.BluRay.x264.DTS-FGT.torrent 70KB 已下载 0 次

加入蓝光高清网VIP会员  无限制下载本站所有资源---点此加入

资源下载、资源播放、字幕使用、无法下载等常见问题---点这里

回复

使用道具 举报

懒得打字嘛,点击右侧快捷回复
高级模式
B Color Image Link Quote Code Smilies 上传

本版积分规则

关注0

粉丝0

帖子66311

发布主题
最新电影 论坛
广告位
联系我们
点击这里联系客服

服务时间:
周一到周日8:00-23:30

  • 打开微信扫一扫
    关注公众号

  • 手机QQ扫一扫
    添加客服

Archiver手机版蓝光高清网 ( 渝ICP备18006373号-2 )|网站地图

Powered by Discuz! X3.4  © 2001-2013 Comsenz Inc.