游客您好
第三方账号登陆
  • 点击联系客服

    在线时间:9:00-18:00

    客服QQ

    1371333023

    电子邮件

    lanniao@1080pro.net
  • 烧友之家APP

    随时掌握烧友资讯

  • 扫描二维码

    关注微信公众号

推荐阅读
蓝鸟
未知星球 | 未知职业
  • 关注0
  • 粉丝2
  • 帖子93937
精选帖子
开启左侧

[其他电视剧] 水上钟楼 4k Curon.S01.美剧下载—27.56 GB

[复制链接]
蓝鸟 发表于 2021-5-4 15:39:24 | 显示全部楼层 |阅读模式 打印 上一主题 下一主题
水上钟楼

状态:第一季(完结)
上映时间:2020-06-10
类型:惊悚 奇幻 悬疑 
地区:意大利
导演:法比奥·莫洛 / 莱达·帕蒂图奇
主演:瓦莱丽亚·比莱洛 / 马西米兰·迪尔 / 安娜·费泽蒂 / 卢卡·莱奥内罗 / 马克斯·马拉特斯塔
画质标准:4K(3840x2160) 封装音轨:MKV 音轨编码:其他DD
豆瓣评分:6.0分

加入蓝光高清网,轻松下载最新4k资源

您需要 登录 才可以下载或查看,没有帐号?立即注册

x
影片参数
水上钟楼4k Curon.S01.ITALIAN.2160p.NF.WEBRip.x265.10bit.HDR.DDP5.1意大利电视剧信息
Video
ID : 1
Format : HEVC
Format/Info : High Efficiency Video Coding
Format profile : Main 10@L5.1@High
HDR format : SMPTE ST 2086, HDR10 compatible
Codec ID : V_MPEGH/ISO/HEVC
Duration : 48 min 59 s
Bit rate : 13.3 Mb/s
Width : 3 840 pixels
Height : 1 920 pixels
Display aspect ratio : 2.000
Frame rate mode : Constant
Frame rate : 24.000 FPS
Color space : YUV
Chroma subsampling : 4:2:0 (Type 2)
Bit depth : 10 bits
Bits/(Pixel*Frame) : 0.075
Stream size : 4.54 GiB (95%)
Default : Yes
Forced : No
Color range : Limited
Color primaries : BT.2020
Transfer characteristics : PQ
Matrix coefficients : BT.2020 non-constant
Mastering display color primaries : Display P3
Mastering display luminance : min: 0.0001 cd/m2, max: 1000 cd/m2
Maximum Content Light Level : 7538 cd/m2
Maximum Frame-Average Light Level : 150 cd/m2


Audio
ID : 2
Format : E-AC-3
Format/Info : Enhanced AC-3
Commercial name : Dolby Digital Plus
Codec ID : A_EAC3
Duration : 50 min 1 s
Bit rate mode : Constant
Bit rate : 640 kb/s
Channel(s) : 6 channels
Channel layout : L R C LFE Ls Rs
Sampling rate : 48.0 kHz
Frame rate : 31.250 FPS (1536 SPF)
Compression mode : Lossy
Delay relative to video : 4 ms
Stream size : 229 MiB (5%)
Title : Italian
Language : Italian
Service kind : Complete Main
Default : Yes
Forced : No

蓝光高清网提示您  点击下方附件名即可开始下载


水上钟楼4k Curon.S01.ITALIAN.2160p.NF.WEBRip.x265.10bit.HDR.DDP5.1意大利电视剧下载

水上钟楼4k Curon.S01.ITALIAN.2160p.NF.WEBRip.x265.10bit.HDR.DDP5.1【27.56GB】

水上钟楼4k Curon.S01.ITALIAN.2160p.NF.WEBRip.x265.10bit.HDR.DDP5.1-182K.torrent (文件大小:70.04 KB)
加入蓝光高清网VIP会员  无限制下载本站所有资源---点这里

资源下载、资源播放、字幕使用、无法下载等常见问题---点这里
回复

使用道具 举报

精彩评论2

xo555手机认证 发表于 2021-5-4 20:42:29 | 显示全部楼层
谢谢分享,楼主辛苦!
回复 支持 反对

使用道具 举报

MetHK 发表于 7 天前 | 显示全部楼层
Thanks  a lots ..........  !!!
回复 支持 反对

使用道具 举报

您需要登录后才可以回帖 登录 | 立即注册

本版积分规则

烧友之家(蓝光高清网)本站内容部分由用户自主分享和转载自互联网,转载目的在于传递更多信息,并不代表本网赞同其观点和对其真实性负责。 如有侵权、违反国家法律政策行为,请联系我们,我们会第一时间及时清除和处理!
蓝光高清网 综合资讯平台
关注我们
  • 官方微信公众号
  • 扫码下载官方APP

X3.4 Licensed© 2001-2013 蓝光高清网 烧友之家APP |网站地图