[动作] 幽灵战队 Ghost.Machine.2009.1080p.BluRay.x264.DTS-FGT 6.55GB

[复制链接]
蓝鸟VIP会员 永久VIP 发表于 2019-8-22 00:33:36 | 显示全部楼层 |阅读模式 打印 上一主题 下一主题

马上注册,轻松下载,海量资源,让你轻松玩转社区。

您需要 登录 才可以下载或查看,没有帐号?立即注册

x

?
◎译  名 幽灵战队
◎片  名 Ghost Machine
◎年  代 2009
◎国  家 英国
◎类  别 动作/科幻
◎语  言 英语
◎上映日期 2009
◎IMDb评分  4.8/10 from 1,469 users
◎IMDb链接  http://www.imdb.com/title/tt1286147/
◎豆瓣评分 5.9/10 from 1,043 users
◎豆瓣链接 http://movie.douban.com/subject/3212367/
◎导  演 Chris Hartwill
◎主  演 Sean Faris
      Rachael Taylor
      Richard Dormer
◎简  介
  在并不遥远的未来,一套趋近真实的模拟系统得到开发,参加者进入模拟系统后仿佛身临其境。系统开发者汤姆·福特(西恩·菲利斯 Sean Faris 饰)及伙伴们不断对其升级,更与军方积极合作,进行实景反恐演练。
  某晚,汤姆和另外两名伙伴将系统布置在一座废弃的监狱内,此前,这座隶属于英国政府的监狱曾被用来拷问与911事件有关的恐怖分子,此地阴森恐怖的气氛正好符合汤姆他们的需求。这群充满童心的大男孩进入系统,与虚拟的恐怖分子展开对抗。然而随着游戏的进行,一些原本系统中并不存在的情节开始出现。受到欲望的趋势,这群年轻人耽于声色暴力之中,并未对反常状况引起警觉,殊不知危险正悄悄向他们逼近……
Video
ID                                       : 1
Format                                   : AVC
Format/Info                              : Advanced Video Codec
Format profile                           : [email protected]
Format settings, CABAC                   : Yes
Format settings, ReFrames                : 5 frames
Codec ID                                 : V_MPEG4/ISO/AVC
Duration                                 : 1h 32mn
Bit rate                                 : 8 670 Kbps
Width                                    : 1 920 pixels
Height                                   : 816 pixels
Display aspect ratio                     : 2.35:1
Frame rate mode                          : Constant
Frame rate                               : 23.976 fps
Color space                              : YUV
Chroma subsampling                       : 4:2:0
Bit depth                                : 8 bits
Scan type                                : Progressive
Bits/(Pixel*Frame)                       : 0.231
Stream size                              : 5.45 GiB (83%)
Writing library                          : x264 core 104 r1713 c276662
Encoding settings                        : cabac=1 / ref=5 / deblock=1:-1:-1 / analyse=0x3:0x113 / me=umh / subme=7 / psy=1 / psy_rd=1.00:0.00 / mixed_ref=1 / me_range=16 / chroma_me=1 / trellis=1 / 8x8dct=1 / cqm=0 / deadzone=21,11 / fast_pskip=1 / chroma_qp_offset=-2 / threads=6 / sliced_threads=0 / nr=0 / decimate=1 / interlaced=0 / constrained_intra=0 / bframes=3 / b_pyramid=2 / b_adapt=2 / b_bias=0 / direct=3 / weightb=1 / open_gop=0 / weightp=2 / keyint=250 / keyint_min=23 / scenecut=40 / intra_refresh=0 / rc_lookahead=40 / rc=2pass / mbtree=1 / bitrate=8670 / ratetol=1.0 / qcomp=0.60 / qpmin=10 / qpmax=51 / qpstep=4 / cplxblur=20.0 / qblur=0.5 / vbv_maxrate=50000 / vbv_bufsize=50000 / ip_ratio=1.40 / aq=1:1.00 / nal_hrd=none
Language                                 : English
Default                                  : Yes
Forced                                   : No
Audio
ID                                       : 2
Format                                   : DTS
Format/Info                              : Digital Theater Systems
Mode                                     : 16
Format settings, Endianness              : Big
Codec ID                                 : A_DTS
Duration                                 : 1h 32mn
Bit rate mode                            : Constant
Bit rate                                 : 1 509 Kbps
Channel(s)                               : 6 channels
Channel positions                        : Front: L C R, Side: L R, LFE
Sampling rate                            : 48.0 KHz
Bit depth                                : 16 bits
Compression mode                         : Lossy
Stream size                              : 995 MiB (15%)
Language                                 : English
Default                                  : Yes
Forced                                   : No
Text
ID                                       : 3
Format                                   : UTF-8
Codec ID                                 : S_TEXT/UTF8
Codec ID/Info                            : UTF-8 Plain Text
Language                                 : English
Default                                  : No
Forced                                   : No

精彩剧照


                                       

蓝光高清网提示您 点击下方附件名称 马上开始下载



温馨提示:
本站资源优先使用迅雷下载,迅雷会员下载,速度基本可以跑满宽带
如果遇到无资源或者版权问题无法下载,推荐使用115网盘离线下载(点击查看115网盘离线下载教程


  • 该资源需要您回复以后 刷新网页进行下载操作

  • 1、Ghost.Machine.2009.1080p.BluRay.x264.DTS-FGT.torrent 66KB 已下载 0 次

加入蓝光高清网VIP会员  无限制下载本站所有资源---点此加入

资源下载、资源播放、字幕使用、无法下载等常见问题---点这里

回复

使用道具 举报

懒得打字嘛,点击右侧快捷回复
高级模式
B Color Image Link Quote Code Smilies 上传

本版积分规则

关注0

粉丝0

帖子66311

发布主题
最新电影 论坛
广告位
联系我们
点击这里联系客服

服务时间:
周一到周日8:00-23:30

  • 打开微信扫一扫
    关注公众号

  • 手机QQ扫一扫
    添加客服

Archiver手机版蓝光高清网 ( 渝ICP备18006373号-2 )|网站地图

Powered by Discuz! X3.4  © 2001-2013 Comsenz Inc.