游客您好
第三方账号登陆
  • 点击联系客服

    在线时间:9:00-18:00

    客服QQ

    1371333023

    电子邮件

    lanniao@1080pro.net
  • 烧友之家APP

    随时掌握烧友资讯

  • 扫描二维码

    关注微信公众号

推荐阅读
蓝鸟
未知星球 | 未知职业
  • 关注0
  • 粉丝2
  • 帖子94105
精选帖子
开启左侧

天堂奇迹 4k Miracles.From.Heaven.2016.2160p.BCORE.WEB-DL.x265.10bit.HDR.DTS-HD.MA.5.1电影下载—

[复制链接]
蓝鸟 发表于 2021-5-8 19:33:48 | 显示全部楼层 |阅读模式 打印 上一主题 下一主题
天堂奇迹
上映时间:2016年
类型:剧情 
地区:美国 
导演:派翠西亚·里根
主演:詹妮弗·加纳 / 凯莱·罗杰斯 / 马丁·亨德森 / 约翰·卡洛·林奇 / 欧赫尼奥·德尔维斯
画质标准:4K HDR  封装音轨:Dolby TrueHD 5.1 
豆瓣评分:7.5分

加入蓝光高清网,轻松下载最新4k资源

您需要 登录 才可以下载或查看,没有帐号?立即注册

x
简       介
: ?$ T' Z2 ^6 y" G) a' m* P0 a  r
2 H, X- V. R' ]7 b. \  一个年轻的女孩儿发现自己罕见的消化系统失调症在一场严重的事故后奇迹般地治愈了。电影改编自Christy Beam的小说《Three Miracles From Heaven 》
, I5 D$ i: n; `% U3 x. ]4 Y% \. r0 u* m

. \( [* e6 a, M* b% y1 D影片参数
; e$ K3 E3 R, l/ v" r3 C
天堂奇愈记(港) / 来自天堂的奇迹(台)/天堂奇迹4k Miracles.From.Heaven.2016.2160p.BCORE.WEB-DL.x265.10bit.HDR.DTS-HD.MA.5.1电影信息% L( ~7 X( ]4 a- A- J% I
Video/ b  |5 _! T9 P  T! h/ |
ID : 1$ r; k) ?4 d' T6 {1 P1 f' r3 a
Format : HEVC
/ j( E) p* |9 b" ?$ n# jFormat/Info : High Efficiency Video Coding- g5 \9 R1 x$ b+ |& y! h* j/ u4 i
Format profile : Main 10@L5.2@High5 K7 t" Q# d7 c+ N
HDR format : SMPTE ST 2086, HDR10 compatible
3 M' l6 i2 H; m; T& }) s: u4 nCodec ID : V_MPEGH/ISO/HEVC2 N# ]7 ]- R/ b- @; S
Duration : 1 h 48 min, x. b2 I4 @  p; I/ G5 G
Bit rate : 74.7 Mb/s
; S+ Z7 o2 K# i0 TWidth : 3 840 pixels
- J. P) p% _4 F% D9 GHeight : 2 160 pixels# V, @: {, M  J, W3 w, T* d
Display aspect ratio : 16:90 @9 s  T4 j6 o  ?, y
Frame rate mode : Constant! o( F+ M6 N( b! S8 z3 p
Frame rate : 23.976 (24000/1001) FPS
$ f. d8 b# I! t) P9 JColor space : YUV- m* j) Z+ A! S& z6 v# `
Chroma subsampling : 4:2:0 (Type 2)# g! x$ o* F! m4 u; {
Bit depth : 10 bits
* M7 [2 f: V9 BBits/(Pixel*Frame) : 0.376  G# q$ a/ W9 ?" J
Stream size : 56.9 GiB (96%)7 ]0 X# W1 _: o" `( N
Language : English) L: k1 J. P6 T& O1 r  i0 U* L, ^
Default : Yes
; M$ X: \- s$ j0 c( b6 f" }Forced : No6 j( T( h# ]& ~2 C/ m4 D
Color range : Full
4 H+ V1 ?& a  {2 F( g! _* ^Color primaries : BT.2020& T0 N) K% Y/ W( w8 U
Transfer characteristics : PQ: ~; p7 ]3 g6 j, w
Matrix coefficients : BT.2020 non-constant/ J+ t! _) o8 ?. h2 p8 g. {
Mastering display color primaries : Display P3- ~( X9 m; `1 I" \7 n
Mastering display luminance : min: 0.0050 cd/m2, max: 4000 cd/m2
" n* y' A6 e* i$ m0 GMaximum Content Light Level : 1166 cd/m2
/ r/ v: a0 Q7 P0 W3 d3 a  d2 uMaximum Frame-Average Light Level : 989 cd/m2' a9 H6 p! p$ X5 @+ k! c

( n& a4 x. t8 ^- c0 F, m

! n1 z% I5 A0 ]Audio #1
  p, W; C9 l5 D9 _9 e9 BID : 2
1 r+ H* P) M- E2 wFormat : DTS XLL
5 o) o$ R; c2 KFormat/Info : Digital Theater Systems
) F* k0 x& Q2 U7 U" o/ bCommercial name : DTS-HD Master Audio# [8 `# O. M# P& U
Codec ID : A_DTS
% [, v* O  _) XDuration : 1 h 49 min
2 W. O- h; c* n3 \7 y+ OBit rate mode : Variable
; A) ]% @) K7 S- K( {+ y+ j$ hBit rate : 2 102 kb/s
7 s8 U0 k4 b7 J9 _. ]Channel(s) : 6 channels; v& y" H0 y/ w; p( w
Channel layout : C L R Ls Rs LFE
& M) l+ E4 ]$ `# ISampling rate : 48.0 kHz
( C; a$ W! h' M- E' j9 H! v8 aFrame rate : 93.750 FPS (512 SPF)  ]% g. I6 _1 ^- ^- c# G7 E' [
Bit depth : 16 bits5 A2 ]0 `3 o( e' O4 k! R- b4 A7 h
Compression mode : Lossless
3 h' K0 C2 [5 h% k+ O: `$ s+ L, d$ c5 rDelay relative to video : 3 ms( J) b8 O6 W. o
Stream size : 1.60 GiB (3%)
" E- p: L% R# @) W. gTitle : DTS-HD MA 5.1
; |/ T* @2 u6 m" e9 T/ C7 h1 B9 vLanguage : English6 z- a5 t/ h+ w3 x- T3 @) b$ N
Default : Yes
, o8 K3 E& o7 T9 M$ Z9 nForced : No
: c3 w0 A7 x( `& X* s2 M1 j% L! Y$ I3 g
+ T$ T- F/ F* B
Audio #2
% k1 I2 D: w9 Z' i2 P; e. w% mID : 3
( j3 Q  w. b: _. k7 w7 a. [Format : AC-39 {. J0 \" U) {
Format/Info : Audio Coding 3
7 E# Y8 x$ j, E8 M, zCommercial name : Dolby Digital" m) F" F1 ~+ g& d
Codec ID : A_AC3
' R0 V& V! [- p! s0 v# X3 PDuration : 1 h 48 min5 n6 r" z/ E# N8 H( g% U
Bit rate mode : Constant
( y6 D$ m2 Q9 T( l2 ?/ q1 [4 Y, h" a, E  ^; CBit rate : 640 kb/s$ H! q) A! }5 L' x* D1 H
Channel(s) : 6 channels& {$ k- ^7 U6 e% W8 U" Q7 K* s  K% ]
Channel layout : L R C LFE Ls Rs
4 W3 Z  r' @8 T8 BSampling rate : 48.0 kHz  r$ H2 `  [( W( C
Frame rate : 31.250 FPS (1536 SPF)2 b  P: z  r+ |$ A2 L
Compression mode : Lossy+ V# i, y  ]% w0 P8 R1 e0 \9 x
Stream size : 499 MiB (1%); L+ U; Z6 j1 h2 s8 b! ]
Title : DD 5.1
- l3 |( W( {' n8 h/ U1 ?5 TLanguage : English+ {/ D7 r6 v$ q7 D9 w
Service kind : Complete Main
0 l  l! J5 q! H# b: J$ M0 i0 yDefault : No1 h5 g# I# C: j# u
Forced : No+ Z: v' d( {* V9 ?8 i, U
. A9 O" i4 Q( I& v2 `3 }0 r

# `9 F7 ?- b8 `5 R6 b$ IAudio #3
  e  A' Q, O4 N( S# YID : 4
. V% J, e' h2 ?Format : DTS! ~2 \- Z8 V& w3 N6 j
Format/Info : Digital Theater Systems
: E/ H1 R- R1 |' G. [2 L9 JCodec ID : A_DTS
0 u6 k6 ^5 }  D0 N# o5 |& V" mDuration : 1 h 48 min( u0 y8 t, E: S! M' Y& G
Bit rate mode : Constant
- T8 n  o4 [% k8 P: [  r% ABit rate : 768 kb/s! m$ q8 E# p) w, C& U! q
Channel(s) : 6 channels
+ j2 e+ H+ w1 K8 l% jChannel layout : C L R Ls Rs LFE
! x% t6 W; L5 f; ?9 HSampling rate : 48.0 kHz& W; I6 g" q/ T: f$ L
Frame rate : 93.750 FPS (512 SPF): S1 b& i, I) b$ m$ i& M. e
Bit depth : 24 bits4 w, t& [# X9 s  b$ q
Compression mode : Lossy
* e! h; U% n* y( X: ]9 f3 k6 RStream size : 599 MiB (1%)
7 X; S1 V! v' y; C+ ETitle : DTS 5.1  n8 d* e/ h  c& Z' F# N
Language : English" P5 b% I3 c* f2 v+ h' f
Default : No& u% o9 ]" t( }/ r6 y
Forced : No
' {, E% p& }4 c+ \
9 \* Z! U' O* l$ d: T

5 n! S/ A0 d$ H1 y$ U0 N/ ^) u1 ^  vText% e( C8 S. I4 u* u9 m: u+ N
ID : 50 {7 F$ e  h% ~( E- ]0 U$ M
Format : UTF-8
  h9 X9 A* ~- \6 D# A/ pCodec ID : S_TEXT/UTF8* P8 L) o- |* h
Codec ID/Info : UTF-8 Plain Text
7 E5 X) A# Q% v% U' i2 i- UDuration : 1 h 43 min
/ G) y  |6 A% ?6 CBit rate : 82 b/s
3 i0 t: k- S; \2 \% FCount of elements : 1865( K6 O2 {# W- |& T( S9 X" |
Stream size : 62.6 KiB (0%)
0 n# ?8 Q. E9 FLanguage : English+ Q5 U8 b9 @7 c6 Z% c
Default : Yes- V# t/ L7 A! B6 @8 O
Forced : No8 w" i- k, O  {3 P

2 O3 p) T5 T, O- U+ D

% y( |! a/ p; I4 {Menu( a  f7 ?- o- b0 |7 h
00:00:00.000 : 00:00:00.000$ f3 Z# B1 N, \) T
00:06:10.161 : 00:06:10.161
0 ]% A6 v1 U; }1 r+ f1 H: ^5 J00:12:48.101 : 00:12:48.101
; c% Z, X& {+ _* C, h4 @00:19:17.031 : 00:19:17.031/ j$ A2 X# _9 G/ Z! o9 y$ Y
00:26:49.525 : 00:26:49.5253 s4 Q& [0 u- F6 M
00:33:38.725 : 00:33:38.725
3 d  m. w) u7 U3 _9 u0 ~00:39:39.460 : 00:39:39.460
) y) v7 G! W4 F, g# C! t. z, j00:45:47.703 : 00:45:47.703
. n5 }7 M% _& m: G7 \00:53:37.131 : 00:53:37.131/ g1 t5 v+ ~) S% k1 E$ N1 O
01:00:58.488 : 01:00:58.488) M, G2 s% B4 |2 E6 @, H9 t( n. T
01:08:36.029 : 01:08:36.029! u6 e4 d, g3 Z7 v5 O0 l; U5 h
01:16:13.277 : 01:16:13.277  h( S# U: k' U7 Q9 y2 h
01:23:13.572 : 01:23:13.572
1 h7 v! \2 v, \01:29:06.508 : 01:29:06.508
( K$ F% f: [) S6 t& r01:35:59.587 : 01:35:59.587
0 x0 m8 D0 Y# i" g  e* f01:43:04.178 : 01:43:04.178
" M$ \2 A) U4 V" D/ f
2 w) Z. ~( ~/ c. H$ n
蓝光高清网提示您  点击下方附件名称  马上开始下载
. z6 ~! y( C$ |0 `  ~) T8 j# q2 q6 ?! j4 d$ @

/ Z9 c5 z9 t4 [. i8 r+ m天堂奇愈记(港) / 来自天堂的奇迹(台)/天堂奇迹4k Miracles.From.Heaven.2016.2160p.BCORE.WEB-DL.x265.10bit.HDR.DTS-HD.MA.5.1电影下载3 n3 f8 m; i% x+ s) H% d1 K

7 L8 s: [2 L$ C5 R0 C9 h天堂奇迹4k Miracles.From.Heaven.2016.2160p.BCORE.WEB-DL.x265.10bit.HDR.DTS-HD.MA.5.1【59.54GB】' F- m7 k6 d  Q8 \* K/ w
天堂奇迹4k Miracles.From.Heaven.2016.2160p.BCORE.WEB-DL.x265.10bit.HDR.DT.torrent (文件大小:149.55 KB)
加入蓝光高清网VIP会员  无限制下载本站所有资源---点这里

资源下载、资源播放、字幕使用、无法下载等常见问题---点这里
回复

使用道具 举报

精彩评论1

4kpro2uFLNQaH手机认证 发表于 2021-5-16 09:12:12 | 显示全部楼层
感谢楼主,谢谢
回复 支持 反对

使用道具 举报

您需要登录后才可以回帖 登录 | 立即注册

本版积分规则

烧友之家(蓝光高清网)本站内容部分由用户自主分享和转载自互联网,转载目的在于传递更多信息,并不代表本网赞同其观点和对其真实性负责。 如有侵权、违反国家法律政策行为,请联系我们,我们会第一时间及时清除和处理!
蓝光高清网 综合资讯平台
关注我们
  • 官方微信公众号
  • 扫码下载官方APP

X3.4 Licensed© 2001-2013 蓝光高清网 烧友之家APP |网站地图