游客您好
第三方账号登陆
  • 点击联系客服

    在线时间:9:00-18:00

    客服QQ

    1371333023

    电子邮件

    lanniao@1080pro.net
  • 烧友之家APP

    随时掌握烧友资讯

  • 扫描二维码

    关注微信公众号

推荐阅读
蓝鸟
未知星球 | 未知职业
  • 关注0
  • 粉丝2
  • 帖子94105
精选帖子
开启左侧

来自麦德林的男孩 4k The.Boy.From.Medellin.2020.HDR.2160p.WEB.h265电影下载—10.41 GB

[复制链接]
蓝鸟 发表于 2021-5-8 19:44:41 | 显示全部楼层 |阅读模式 打印 上一主题 下一主题
来自麦德林的男孩
上映时间:2020年
类型:记录 传记 音乐 
地区:美国 
导演:马修·海涅曼
主演:J Balvin
画质标准:4K HDR  封装音轨:Dolby TrueHD 5.1 
豆瓣评分:6.2分

加入蓝光高清网,轻松下载最新4k资源

您需要 登录 才可以下载或查看,没有帐号?立即注册

x
简       介1 m$ X' ?3 R6 k* B
: M  n- `% T4 y6 [  ]& h& ~7 j7 d
  Colombain reggaeton singer J Balvin prepares for his 2019 homecoming concert amid intense political turmoil, in Matthew Heineman's lastest documentary.
; H6 M7 x2 J$ `/ a# _: a! ^+ E2 q) I, t+ V

; V0 I" z- n& c影片参数( h( W/ V/ n, U' p! v+ B
来自麦德林的男孩4k The.Boy.From.Medellin.2020.HDR.2160p.WEB.h265电影信息
+ h; H1 u9 a7 I. YVideo
" E$ T' M; W( r) ]( f$ mID : 1
, T1 h& ^( n  Y0 g- YFormat : HEVC
/ @1 g+ [# \0 tFormat/Info : High Efficiency Video Coding
7 a% i4 A7 y; K% l. QFormat profile : Main 10@L5@Main! \9 N9 Q0 X+ ?0 a
HDR format : SMPTE ST 2094 App 4, Version 1, HDR10+ Profile B compatible
7 I5 m) u9 C" YCodec ID : V_MPEGH/ISO/HEVC& _; Y8 R! W- \- F7 O
Duration : 1 h 35 min
- x! j% m/ [* r! p) sBit rate : 14.8 Mb/s
; m" V3 ]  I, L/ _: s) Q6 IWidth : 3 840 pixels
( v1 H: I4 n' K7 zHeight : 1 600 pixels8 |: z  i8 W) J+ S, N! M
Display aspect ratio : 2.40:1$ \, r' R; t* M8 Y4 X/ N
Frame rate mode : Constant1 |8 J4 x6 C; p1 C
Frame rate : 23.976 (24000/1001) FPS
$ O, ^; P' t8 |7 K3 f; r( \Color space : YUV5 i3 [  L4 P" q. j, r% [
Chroma subsampling : 4:2:0
: ~2 g5 }$ H* |0 F% ^2 F0 I: PBit depth : 10 bits
! s" ^1 o% U: NBits/(Pixel*Frame) : 0.100& X& X+ w* V# V
Stream size : 9.87 GiB (96%)
+ J5 j& n# S3 r& t( _( [Language : English) m+ z: C$ U- ]+ I
Default : Yes
. [! x2 f9 G0 q9 W$ p  QForced : No
6 o) J, @( Z2 f9 V. a% DColor range : Limited* l0 B  f3 o- J6 A
Color primaries : BT.2020. T* Y: m5 }  M
Transfer characteristics : PQ! i/ U' w# |' p
Matrix coefficients : BT.2020 non-constant
) V, e) ~5 I( \3 F- P7 pMastering display color primaries : Display P3
2 ], \$ @- n' Z2 ~' t# xMastering display luminance : min: 0.0001 cd/m2, max: 1000 cd/m2
, J  J5 t& m# D7 |2 mMaximum Content Light Level : 1138 cd/m2
1 v+ W8 t% o6 |7 Q# IMaximum Frame-Average Light Level : 477 cd/m24 ^) r$ Z: Q1 C/ E. h( c

, C7 h3 C) t- E$ u2 y: H) E

& u. ^: q# Y2 _" B7 w% `& nAudio
8 A3 h0 x8 z% J+ nID : 2
$ U! t' t) Z2 G6 O/ @Format : E-AC-3
' ^2 W2 p) Y5 Z( g! P" i* PFormat/Info : Enhanced AC-3
" q) @# s" j* ?7 y( gCommercial name : Dolby Digital Plus: t0 |( G2 g, t: ?8 Q7 G" R
Codec ID : A_EAC3) I7 V- P- e) I2 r. R2 R' `' O  v' g
Duration : 1 h 35 min
4 ]7 ]8 O' v0 zBit rate mode : Constant/ }: d# n8 v+ b' Y+ B
Bit rate : 640 kb/s
$ f- T. ^0 v0 q) `  d  a- JChannel(s) : 6 channels
2 U8 H3 L0 k/ bChannel layout : L R C LFE Ls Rs
2 h% z1 r  z" B: J7 H* zSampling rate : 48.0 kHz
5 ?7 k, v7 \3 ?% i0 c0 AFrame rate : 31.250 FPS (1536 SPF)
. \. R3 G3 U7 E/ J( m; i+ V# C) `Compression mode : Lossy
, n/ k% G& D2 b0 ?4 \9 e/ fStream size : 438 MiB (4%)2 O/ G! [, z: q
Language : English* E  l# m6 N3 {9 `1 B! [8 o, e
Service kind : Complete Main
  d& }# u# P6 o) ]Default : Yes  d+ ?3 n6 n6 b  |, h6 o8 M2 m+ {/ w
Forced : No

, P: }4 B" q& H0 \: B$ V/ I; q5 K+ [) M8 i" q: _
蓝光蓝光高清网提示您  点击下方附件名称  马上开始下载
& @6 P/ V5 S8 [4 F0 Y2 x% s/ f7 f2 i- p# v1 ~
1 ?/ X9 u$ }7 }  m+ j0 B% `) ~
来自麦德林的男孩4k The.Boy.From.Medellin.2020.HDR.2160p.WEB.h265电影下载
' b5 p8 y1 ~& a; ~& l( J. B
+ p- h$ m5 n6 |# f来自麦德林的男孩 4k The.Boy.From.Medellin.2020.HDR.2160p.WEB.h265【10.41 GB】
3 K( r. Y7 H5 p6 c. Y5 { 来自麦德林的男孩4k The.Boy.From.Medellin.2020.HDR.2160p.WEB.h265-WEBLE.torrent (文件大小:52.83 KB)
加入蓝光高清网VIP会员  无限制下载本站所有资源---点这里

资源下载、资源播放、字幕使用、无法下载等常见问题---点这里
回复

使用道具 举报

精彩评论1

4kpro2uFLNQaH手机认证 发表于 2021-5-16 09:10:45 | 显示全部楼层
感谢楼主,谢谢分享
回复 支持 反对

使用道具 举报

您需要登录后才可以回帖 登录 | 立即注册

本版积分规则

烧友之家(蓝光高清网)本站内容部分由用户自主分享和转载自互联网,转载目的在于传递更多信息,并不代表本网赞同其观点和对其真实性负责。 如有侵权、违反国家法律政策行为,请联系我们,我们会第一时间及时清除和处理!
蓝光高清网 综合资讯平台
关注我们
  • 官方微信公众号
  • 扫码下载官方APP

X3.4 Licensed© 2001-2013 蓝光高清网 烧友之家APP |网站地图