[剧情] 鱼缸/90后·少女·性起义/发现心节奏 Fish.Tank.2009.1080p.BluRay.x264.DTS-FGT 16.14GB

[复制链接]
蓝鸟VIP会员 永久VIP 发表于 2019-8-22 00:34:31 | 显示全部楼层 |阅读模式 打印 上一主题 下一主题

马上注册,轻松下载,海量资源,让你轻松玩转社区。

您需要 登录 才可以下载或查看,没有帐号?立即注册

x


◎译  名 鱼缸/90后·少女·性起义(港)/发现心节奏(台)/90后突围少女/鱼缸里的青春
◎片  名 Fish Tank
◎年  代 2009
◎国  家 英国/荷兰
◎类  别 剧情
◎语  言 英语
◎上映日期 2009-09-11(英国)
◎IMDb评分  7.3/10 from 42,814 users
◎IMDb链接  http://www.imdb.com/title/tt1232776/
◎豆瓣评分 7.4/10 from 19,165 users
◎豆瓣链接 http://movie.douban.com/subject/3073875/
◎片  长 123分钟
◎导  演 安德里亚·阿诺德 Andrea Arnold
◎主  演 凯蒂·贾维斯 Katie Jarvis
      迈克尔·法斯宾德 Michael Fassbender
      凯利斯顿·韦勒英 Kierston Wareing
      Rebecca Griffiths
      哈里·崔德威 Harry Treadaway
◎简  介
  15岁的米娅(凯蒂·贾维斯 Katie Jarvis 饰)性格叛逆而古怪,惹事生非的她不仅被学校开除而且连她最好的朋友都离她而去。米娅热爱跳舞,然而身边却似乎并没有多少人在意她那充满热情的舞步,直到一个叫康纳(迈克尔·法斯宾德 Michael         Fassbender 饰)的男人出现。康纳是母亲的男朋友,在他与母亲同居的日子里,米娅被这个英俊而又友善的男人所吸引。在康纳的支持和鼓励下,米娅得到了一次舞蹈面试的机会,而且与康纳的关系也更进了一步。然而,现实世界并非想像的那样的美好……
  本片由在2006年凭借《红色之路》获得戛纳电影节评委会奖的英国新锐女导演安德里亚·阿诺德(Andrea Arnold)执导,是她的第二部电影长片。作为2009年戛纳电影节竞赛影片,《鱼缸》在2009年英国独立电影节获得8项提名。
◎获奖情况
  第62届戛纳电影节 (2009)
  主竞赛单元 金棕榈奖(提名) 安德里亚·阿诺德
  主竞赛单元 评审团奖 安德里亚·阿诺德
  第23届芝加哥影评人协会奖 (2010)
  最具潜力演员(提名) 凯蒂·贾维斯
Video
ID                                       : 1
Format                                   : AVC
Format/Info                              : Advanced Video Codec
Format profile                           : [email protected]
Format settings, CABAC                   : Yes
Format settings, ReFrames                : 5 frames
Codec ID                                 : V_MPEG4/ISO/AVC
Duration                                 : 2h 3mn
Bit rate                                 : 16.9 Mbps
Width                                    : 1 436 pixels
Height                                   : 1 080 pixels
Display aspect ratio                     : 4:3
Frame rate mode                          : Constant
Frame rate                               : 23.976 fps
Color space                              : YUV
Chroma subsampling                       : 4:2:0
Bit depth                                : 8 bits
Scan type                                : Progressive
Bits/(Pixel*Frame)                       : 0.455
Stream size                              : 14.5 GiB (90%)
Writing library                          : x264 core 125 r2208kMod d9d2288
Encoding settings                        : cabac=1 / ref=5 / deblock=1:-3:-3 / analyse=0x3:0x133 / me=umh / subme=11 / psy=1 / fade_compensate=0.00 / psy_rd=1.00:0.00 / mixed_ref=1 / me_range=32 / chroma_me=1 / trellis=2 / 8x8dct=1 / cqm=0 / deadzone=21,11 / fast_pskip=0 / chroma_qp_offset=-2 / threads=6 / lookahead_threads=1 / sliced_threads=0 / nr=0 / decimate=1 / interlaced=0 / bluray_compat=0 / constrained_intra=0 / bframes=10 / b_pyramid=2 / b_adapt=2 / b_bias=0 / direct=3 / weightb=1 / open_gop=0 / weightp=2 / keyint=240 / keyint_min=23 / scenecut=40 / intra_refresh=0 / rc_lookahead=60 / rc=crf / mbtree=0 / crf=18.0000 / qcomp=0.70 / qpmin=0 / qpmax=69 / qpstep=4 / vbv_maxrate=50000 / vbv_bufsize=62500 / crf_max=0.0 / nal_hrd=none / ip_ratio=1.40 / pb_ratio=1.20 / aq=1:0.70
Language                                 : English
Default                                  : Yes
Forced                                   : No
Color range                              : Limited
Matrix coefficients                      : BT.709
Audio
ID                                       : 2
Format                                   : DTS
Format/Info                              : Digital Theater Systems
Mode                                     : 16
Format settings, Endianness              : Big
Codec ID                                 : A_DTS
Duration                                 : 2h 3mn
Bit rate mode                            : Constant
Bit rate                                 : 1 509 Kbps
Channel(s)                               : 6 channels
Channel positions                        : Front: L C R, Side: L R, LFE
Sampling rate                            : 48.0 KHz
Bit depth                                : 24 bits
Compression mode                         : Lossy
Stream size                              : 1.30 GiB (8%)
Language                                 : English
Default                                  : Yes
Forced                                   : No
Text #1
ID                                       : 3
Format                                   : UTF-8
Codec ID                                 : S_TEXT/UTF8
Codec ID/Info                            : UTF-8 Plain Text
Language                                 : English
Default                                  : No
Forced                                   : No
Text #2
ID                                       : 4
Format                                   : UTF-8
Codec ID                                 : S_TEXT/UTF8
Codec ID/Info                            : UTF-8 Plain Text
Title                                    : SDH
Language                                 : English
Default                                  : No
Forced                                   : No
Menu
00:00:00.000                             : en:Messages For Keeley
00:07:22.108                             : enersonal Space
00:10:30.546                             : en:The Horse
00:14:05.469                             : en:Connor
00:20:13.587                             : en:Joanne\ s Party
00:30:06.971                             : enay Trip
00:42:41.475                             : en:Options For Mia
00:50:45.125                             : enemo Tape
00:56:57.580                             : en:A New Friend
01:04:25.611                             : en:An Audition
01:10:34.146                             : enry Run
01:22:22.729                             : en:\ Connor\ s Gone\
01:30:36.764                             : en:Married With Child
01:38:07.715                             : en:Keira
01:47:19.057                             : en:Tryouts
01:53:59.040                             : en:On To Wales
01:59:30.830                             : en:End Credits

精彩剧照


                                       

蓝光高清网提示您 点击下方附件名称 马上开始下载



温馨提示:
本站资源优先使用迅雷下载,迅雷会员下载,速度基本可以跑满宽带
如果遇到无资源或者版权问题无法下载,推荐使用115网盘离线下载(点击查看115网盘离线下载教程


  • 该资源需要您回复以后 刷新网页进行下载操作

  • 1、Fish.Tank.2009.1080p.BluRay.x264.DTS-FGT.torrent 81KB 已下载 0 次

加入蓝光高清网VIP会员  无限制下载本站所有资源---点此加入

资源下载、资源播放、字幕使用、无法下载等常见问题---点这里

回复

使用道具 举报

懒得打字嘛,点击右侧快捷回复
高级模式
B Color Image Link Quote Code Smilies 上传

本版积分规则

关注0

粉丝0

帖子66311

发布主题
最新电影 论坛
广告位
联系我们
点击这里联系客服

服务时间:
周一到周日8:00-23:30

  • 打开微信扫一扫
    关注公众号

  • 手机QQ扫一扫
    添加客服

Archiver手机版蓝光高清网 ( 渝ICP备18006373号-2 )|网站地图

Powered by Discuz! X3.4  © 2001-2013 Comsenz Inc.