游客您好
第三方账号登陆
  • 点击联系客服

    在线时间:9:00-18:00

    客服QQ

    1371333023

    电子邮件

    lanniao@1080pro.net
  • 烧友之家APP

    随时掌握烧友资讯

  • 扫描二维码

    关注微信公众号

推荐阅读
蓝鸟
未知星球 | 未知职业
  • 关注0
  • 粉丝2
  • 帖子94105
精选帖子
开启左侧

精灵旅社1 4k Hotel.Transylvania.2012.2160p.BCORE.WEB-DL.x265.10bit.HDR.DTS-HD.MA.5.1电影下载—49.35 GB

[复制链接]
蓝鸟 发表于 2021-5-8 20:01:52 | 显示全部楼层 |阅读模式 打印 上一主题 下一主题
精灵旅社1
上映时间:2012年
类型:喜剧 动画 奇幻 
地区:美国 
导演:格恩迪·塔塔科夫斯基
主演:亚当·桑德勒 / 安迪·萨姆伯格 / 赛琳娜·戈麦斯 / 凯文·詹姆斯 / 法兰·德瑞雪
画质标准:4K HDR  封装音轨:DTS-HD.MA 5.1 
豆瓣评分:8.0分

加入蓝光高清网,轻松下载最新4k资源

您需要 登录 才可以下载或查看,没有帐号?立即注册

x
本帖最后由 蓝鸟 于 2021-5-8 20:03 编辑 : s# w& G8 y9 L% N+ k) C

) M9 O! x  T9 x. }5 O, _简       介
, l1 j% Y  H' V' r* c: l, C  Y- C  在阴森恐怖令人谈之色变的幽灵森林深处,耸立着一幢巍峨庄严的古堡。这里的主人正是声名显赫的吸血鬼德古拉(亚当·桑德勒 Adam Sandler 配音)。与传说中不同,德古拉是一个无比温柔的好爸爸,他独自抚养爱女梅菲丝(赛琳娜·戈麦斯 Selena Gomez 配音),为了保护女儿免遭人类的戕害,而特意修建了这座名为尖叫旅社的城堡,普通人类绝对无法接近这里。每年梅菲丝生日之际,科学怪人、狼人、木乃伊、隐形人等怪物都从世界各地赶来为小女孩庆生。在梅菲丝118岁生日之际,她渴望见识外面的世界,早有准备的德古拉设下骗局,却意外将人类少年乔纳森(安迪·萨姆伯格 Andy Samberg 配音)引入古堡。
9 [8 `( _: U5 p  T' ^: b  乔纳森的到来似乎为怪物世界带来一股全新的气息,德古拉伯爵则不得不费尽心机隐藏他是人类的真相……

; o: h  ^, k" ?7 W+ ^0 ^( G' A! x8 z" {, \8 z& M, q
9 l! n, p) G$ t
影片参数+ q0 _; x6 x/ F) N
尖叫旅社(台) / 鬼灵精怪大酒店(港) / 怪物旅社 / 怪物旅店 / 特兰西瓦尼亚酒店 / 怪物酒店 / 精灵旅店/精灵旅社 1 4k Hotel.Transylvania.2012.2160p.BCORE.WEB-DL.x265.10bit.HDR.DTS-HD.MA.5.1电影信息' u6 U8 x" R5 ?, w3 D
Video
" e8 ]7 R5 d! @! d1 X$ u6 c( RID : 11 Y3 d, B7 L, X& |, ~3 F
Format : HEVC
8 g5 O) R  H. r! E6 zFormat/Info : High Efficiency Video Coding1 k- z1 n9 `. A4 q- H$ t6 J, a
Format profile : Main 10@L5.2@High: o+ h% j) G" R$ ^5 Y% B& I1 p
HDR format : SMPTE ST 2086, HDR10 compatible
5 R& J: u2 J+ |  DCodec ID : V_MPEGH/ISO/HEVC
& I  O+ K3 H1 i$ K" tDuration : 1 h 31 min( M; ]' k- N1 d( y( J
Bit rate : 73.6 Mb/s
, G1 J- {2 @; T/ GWidth : 3 840 pixels* x% ^& A, w4 u5 k/ U6 M" Z7 D
Height : 2 160 pixels4 b) l* u- m& [) ?
Display aspect ratio : 16:9
9 w7 c7 P; n8 vFrame rate mode : Constant
& ~& k) H% Q0 }+ Y' |  _Frame rate : 23.976 (24000/1001) FPS  \. K) V" a  g$ e( U2 U* A
Color space : YUV
' e# Q0 n, `" G3 f/ TChroma subsampling : 4:2:0 (Type 2)
/ e6 f) j8 }- |" l) yBit depth : 10 bits! L  K# H3 r) Y0 X
Bits/(Pixel*Frame) : 0.370) c" @3 [# n3 \# s5 i
Stream size : 47.0 GiB (95%)( r) N# f6 i+ @; q( |2 O
Language : English0 B2 y& C& ?! D! X; z5 o$ S% T
Default : Yes& _  u; k9 K! a" _) `) |) @
Forced : No
3 K# m; _8 a. |& `; |* SColor range : Full$ r& G( K& P* Q
Color primaries : BT.20205 {. W2 o. P: |/ Q9 s
Transfer characteristics : PQ
' i5 J2 G$ Y( E; IMatrix coefficients : BT.2020 non-constant$ N7 k4 B1 a1 A4 _& V" B/ M- ^( A! W) {
Mastering display color primaries : Display P3
3 U, G# z. \9 G5 k+ T0 nMastering display luminance : min: 0.0050 cd/m2, max: 4000 cd/m2
( f% r! z. l. Y+ _: @" }$ t' ^Maximum Content Light Level : 666 cd/m2
4 r, H4 x+ G: {. }/ m- nMaximum Frame-Average Light Level : 472 cd/m2
! s" X/ l8 d( ~0 h8 Y
4 _$ Q. g, e8 j3 t- U+ _6 s. G! Q

0 y0 T% y9 R% R4 o) sAudio #1
4 U7 w, ~, i5 s, F2 b; m* m- yID : 20 r& x. h1 _9 L
Format : DTS XLL
# R0 ?4 w9 ?5 d& C. X, FFormat/Info : Digital Theater Systems$ t1 c% k, y2 p! V
Commercial name : DTS-HD Master Audio
. U; S& r* j2 W2 q) cCodec ID : A_DTS
0 S+ ]* i5 d) Y/ l" k' z9 \# ~Duration : 1 h 31 min& [: Q4 y+ M3 \* _0 N
Bit rate mode : Variable' L. f. X) Z3 v. h5 O* h
Bit rate : 2 224 kb/s
' ~* j3 m; d' m- U" PChannel(s) : 6 channels
+ V) C! r, w9 _7 gChannel layout : C L R Ls Rs LFE# W8 @  h! e; s
Sampling rate : 48.0 kHz3 Q6 ~1 _) g- `( e, ?! }$ f2 q5 y
Frame rate : 93.750 FPS (512 SPF)2 w7 E: P. m( b6 F, ~) p2 T
Bit depth : 16 bits
' D9 R( L) o) LCompression mode : Lossless
3 |" m" m+ S' N, w7 m! ODelay relative to video : 3 ms
& T5 h/ J3 y% j; {# M! P( mStream size : 1.42 GiB (3%)/ z  ]4 B- X% J5 o+ _8 d/ u6 o& G
Title : DTS-HD MA 5.12 B% T! x# T6 c" i3 P0 f
Language : English
0 p& k2 T3 n$ `. F! f  ^( ZDefault : Yes8 n; Z6 Z0 j0 g8 v7 X4 O+ N9 i2 C
Forced : No
* I2 s! d+ i- x
( L# P) }6 X* }8 R0 |
: a6 b8 H; C8 Z
Audio #27 Q# {' A' W3 d0 B  R+ ]
ID : 3! _3 b$ _1 h) I; D; X' ?
Format : AC-3
; Q1 m# ?. ?8 P3 H' X/ p4 {  dFormat/Info : Audio Coding 3
, [* @8 h" c& ?' P9 R& L" bCommercial name : Dolby Digital
! [* h4 N0 r% S: g( RCodec ID : A_AC3+ N  R% k$ ~( B& J2 p" \  J6 b
Duration : 1 h 31 min
  s% \$ s: O; |Bit rate mode : Constant# E* b" X% S& a2 \1 p, R
Bit rate : 640 kb/s- O8 @  q+ q6 [) z0 I) p
Channel(s) : 6 channels
. ~/ |' @/ u! g+ ZChannel layout : L R C LFE Ls Rs& u; S0 J1 t1 z
Sampling rate : 48.0 kHz
0 Z' F' m- ]; }9 h: b6 _Frame rate : 31.250 FPS (1536 SPF)) y* i, L! [: J: k2 g  t
Compression mode : Lossy
, U0 L* X. _. U, [. e* Y. tStream size : 419 MiB (1%)" s) d0 W( E$ u
Title : DD 5.1
- E  u. Z2 z6 s7 B! _* g! Y3 @5 ?4 HLanguage : English2 z+ P3 U6 Y8 T, Y  B$ L# W# ?7 h
Service kind : Complete Main
0 N8 v! R/ Y" G' q9 s/ ZDefault : No
# v; g/ {0 U9 x% vForced : No
. R* W& {- z" e3 C. j
' p) H) L1 p2 J- Z4 E  s1 X

4 u4 l; v. @9 R( E' M/ a5 fAudio #39 @* ?6 B0 \& v% `% o: z- U
ID : 4% `7 g  y9 t( q# D: D% b
Format : DTS
+ O+ }8 U. K4 t6 E% q  Y9 fFormat/Info : Digital Theater Systems/ d. A- p( R# m  [/ E
Codec ID : A_DTS
3 ?9 P& f5 X* U( u  `/ E* CDuration : 1 h 31 min
# Z! Q3 `# L9 V* g& PBit rate mode : Constant
! W* W& G$ b+ ^1 e$ [6 d/ H; CBit rate : 768 kb/s
/ ]/ |6 \7 V  j! ^' A$ \. V  UChannel(s) : 6 channels8 n/ V  k) l  }- g. G8 o# b8 R
Channel layout : C L R Ls Rs LFE
9 _+ Q+ v2 A1 k: ?# W4 sSampling rate : 48.0 kHz
# R+ t/ A. w  ?Frame rate : 93.750 FPS (512 SPF)
* U. `! D" b) ~2 V& @, LBit depth : 24 bits+ a* k6 i2 {2 X$ p
Compression mode : Lossy  s: u7 f% i2 g! p& N
Stream size : 503 MiB (1%)
: Y1 A% L% j6 d$ tTitle : DTS 5.15 G& F" `% F* S( e" ~
Language : English
3 E- b2 L" Z  e8 h' l$ E3 g4 MDefault : No
$ v: K+ ~6 l" {# KForced : No' K3 j4 v! [% l( j% G" @9 Z  J+ r
# q+ F1 E0 u; }, B. [3 T
' A* f: x& k. c# Y$ Z" m# l
Text% H* S% N9 V" L, l' g
ID : 5& U! j- |2 i& d' y8 h; _1 A
Format : UTF-8, O, r% u* x8 G& k5 ?
Codec ID : S_TEXT/UTF8: `. W0 i8 a; _1 {
Codec ID/Info : UTF-8 Plain Text
. R2 x$ S1 ~3 `Duration : 1 h 24 min
7 G, x* ]: R. `& U0 \+ ]5 ^8 PBit rate : 67 b/s
/ a$ M+ L8 D) T- M* bCount of elements : 12949 G% q7 T+ n# c
Stream size : 41.6 KiB (0%)
0 B- T# V$ w- X* STitle : English-SRT0 K7 B+ _- _3 l9 }
Language : English$ p, ]8 I+ v3 y4 f
Default : Yes4 X! f( T& L7 D, U5 i/ y2 E$ ]
Forced : No
  b' w$ t) P, n6 {* `. T
2 y( K1 ?8 G4 P- T* D( ~

2 T) l! E/ _1 a, JMenu  o) }0 A0 g, r7 @9 G/ p
00:00:00.000 : Chapter 1; r! \2 z, g& H3 `$ t
00:04:49.372 : Chapter 27 g; L4 z9 n* z* t5 _( X
00:10:23.790 : Chapter 3
. N! C' C: H' W0 ]% z00:14:19.275 : Chapter 4
7 [0 @3 u( M; G1 c( l00:19:25.498 : Chapter 5
- k/ H# m  V* t! f# Z% \- W1 ^- ?2 P6 Y00:25:11.218 : Chapter 66 p3 D* Y4 l( {
00:29:49.413 : Chapter 7( i, g0 ^, o3 e8 R+ b7 k: I
00:35:50.815 : Chapter 8! b- g" P" v3 O1 T  h. P9 J1 j$ e
00:41:11.636 : Chapter 9
. S9 @& T) i9 _3 [( Q00:46:29.537 : Chapter 10
9 x% |4 w; s+ _- A" x0 Q00:53:50.227 : Chapter 11
* w+ G1 L; f: k2 J, W- c+ r00:57:44.795 : Chapter 12
& x# w, v6 @1 c+ @8 W01:04:15.268 : Chapter 13
7 x, `" G% _, `1 b; y, f# ]/ `01:08:48.499 : Chapter 14
. i" R' z& k3 k( m- b: X8 _01:15:20.599 : Chapter 15
& V- G, b' B* g+ z6 j01:18:50.643 : Chapter 16

7 ]; w$ \9 {1 F; m& \4 ^7 j蓝光高清网提示您  点击下方附件名称  马上开始下载; ~9 r+ |- h+ O( u
% i/ i) g! |7 U) A- L) f( ?4 \
3 E) d  }$ I; J- T1 M; F3 Y
尖叫旅社(台) / 鬼灵精怪大酒店(港) / 怪物旅社 / 怪物旅店 / 特兰西瓦尼亚酒店 / 怪物酒店 / 精灵旅店/精灵旅社 1 4k Hotel.Transylvania.2012.2160p.BCORE.WEB-DL.x265.10bit.HDR.DTS-HD.MA.5.1电影下载
: D$ o1 |2 |% @9 x+ ~" K
- x  b9 V# K; M4 u) ^精灵旅社 1   4k Hotel.Transylvania.2012.2160p.BCORE.WEB-DL.x265.10bit.HDR.DTS-HD.MA.5.1【49.35 GB】1 t0 |' c1 W8 W% b+ V6 Y+ h# Y
精灵旅社 1 4k Hotel.Transylvania.2012.2160p.BCORE.WEB-DL.x265.10bit.HDR.D.torrent (文件大小:124.07 KB)
加入蓝光高清网VIP会员  无限制下载本站所有资源---点这里

资源下载、资源播放、字幕使用、无法下载等常见问题---点这里
回复

使用道具 举报

精彩评论3

恭恭敬敬手机认证 发表于 2021-5-12 08:13:09 | 显示全部楼层
先谢楼主分享。
回复 支持 反对

使用道具 举报

恭恭敬敬手机认证 发表于 2021-5-12 08:15:20 | 显示全部楼层
先谢楼主分享。
回复 支持 反对

使用道具 举报

4kpro2uFLNQaH手机认证 发表于 2021-5-16 09:09:35 | 显示全部楼层
谢谢分享,感谢楼主
回复 支持 反对

使用道具 举报

您需要登录后才可以回帖 登录 | 立即注册

本版积分规则

烧友之家(蓝光高清网)本站内容部分由用户自主分享和转载自互联网,转载目的在于传递更多信息,并不代表本网赞同其观点和对其真实性负责。 如有侵权、违反国家法律政策行为,请联系我们,我们会第一时间及时清除和处理!
蓝光高清网 综合资讯平台
关注我们
  • 官方微信公众号
  • 扫码下载官方APP

X3.4 Licensed© 2001-2013 蓝光高清网 烧友之家APP |网站地图