游客您好
第三方账号登陆
  • 点击联系客服

    在线时间:9:00-18:00

    客服QQ

    1371333023

    电子邮件

    lanniao@1080pro.net
  • 烧友之家APP

    随时掌握烧友资讯

  • 扫描二维码

    关注微信公众号

推荐阅读
蓝鸟
未知星球 | 未知职业
  • 关注0
  • 粉丝2
  • 帖子94112
精选帖子
开启左侧

神奇燕尾服 4K.The.Tuxedo.2002.HDR.2160p.WEB.h265-4k电影下载—10.08 GB

[复制链接]
蓝鸟 发表于 2021-5-12 09:42:31 | 显示全部楼层 |阅读模式 打印 上一主题 下一主题
神奇燕尾服
上映时间:2002年
类型:喜剧 动作 惊悚 科幻 冒险 
地区:美国 
导演:凯文·多诺万
主演:成龙 / 詹妮弗·洛芙·休伊特 / 詹森·艾萨克 / 黛比·玛扎
画质标准:4K HDR  封装音轨:Dolby TrueHD 5.1 
豆瓣评分:6.3分

加入蓝光高清网,轻松下载最新4k资源

您需要 登录 才可以下载或查看,没有帐号?立即注册

x
简       介, g; ^9 [; h$ P% V

' ~" }3 j  G. X+ H
6 X# \7 V$ H2 s( }6 k
  出租车司机吉米·唐(成龙 饰)是个在自己心仪女子面前缺乏自信的家伙,所经反复排练但还是会在上阵时手足无措。飚出租车是他唯一所长,拥有因超速被九次吊扣执照的光荣记录,也因这一点被富翁戴弗林(Jason Isaacs 饰)的助手选中,担任戴弗林的司机。
! ^) g) d% M& T6 S$ O5 Q  戴弗林的另一身份是情报局局长,此时正全力调查一宗饮用水公司的商业阴谋。唐被戴弗林优雅的举动深深折服,两人合作融洽,不料一日两人遭滑板炸弹袭击,戴弗林重伤,昏迷前将家中严禁触碰的燕尾服交予唐使用,并留下“沃特史崔达”的莫名词句。+ M' f1 ]0 A4 t7 u' ~- p5 D
  唐无奈之下只得扮演戴弗林的角色,接受安全部门的指令,但他很快发现那件燕尾服不同寻常!用腕表调控相关模式便可以让着衣者拥有超人般的身手。唐要仰仗这件高科技战衣与美丽的菜鸟探员黛儿·布兰妮(Jennifer Love Hewitt 饰)合作,用他们的乌龙方式查清班尼公司的真相……

  n; x/ t9 y. u0 u: {' B; m6 U. ?" [/ k8 J5 v- C1 [

5 Q4 z6 b  l0 |5 a( _. q& |影片参数' ]1 i) M( F7 [, @! g* [
燕尾服(台) / 特务踢死兔(港) / 神奇西服 / T.U.X./神奇燕尾服4K.The.Tuxedo.2002.HDR.2160p.WEB.h265-4k电影信息
! Y2 A. N, p# r; \; TVideo
% ~% r7 A( W$ w' ^* c1 g/ ^* sID : 17 B4 z3 L! G5 ~
Format : HEVC! Z; O  F4 J, S7 s: l1 f! J
Format/Info : High Efficiency Video Coding( q3 X2 b) I- x1 f: F5 h1 j( ?
Format profile : Main 10@L5@Main
0 H$ }; T9 Z+ l3 `HDR format : SMPTE ST 2094 App 4, Version 1, HDR10+ Profile B compatible5 G4 C) v+ `3 I. T7 z0 `" R
Codec ID : V_MPEGH/ISO/HEVC
' A3 J4 T+ w6 y2 A& t* }Duration : 1 h 38 min
9 N8 |4 l! u7 H: R7 RBit rate : 15.0 Mb/s$ C3 v# N# R0 G' G6 y, }* n
Width : 3 840 pixels6 Z8 _, f+ a" O! L( o1 [5 V
Height : 2 080 pixels8 w" K1 A2 U( t. J! f( [% V
Display aspect ratio : 1.85:13 u* ?: t" Y+ Y* E! j8 b
Frame rate mode : Constant
) o* w" W3 X; ?$ q' M. C" YFrame rate : 23.976 (24000/1001) FPS
9 O) j' N/ a2 Z0 X: ^' Z3 WColor space : YUV
% d$ n3 [2 Y, g  e8 l& S: `; g* g' |; WChroma subsampling : 4:2:0
7 m8 Y& d9 M3 I9 e) sBit depth : 10 bits
) |: h& P+ g! v- B/ BBits/(Pixel*Frame) : 0.078
/ k6 T1 Q* K" P! j4 [Stream size : 10.3 GiB (96%)
) f* T$ v& \% g* {* wLanguage : English
& l3 m5 V' N5 o0 t+ f- {, I& Q3 @Default : Yes* L7 g# l# F( A+ o
Forced : No, n  O5 {, ?6 k% N. V( m, B! S
Color range : Limited# r9 x. m: S( y! u6 \
Color primaries : BT.2020
0 r5 ^- S# Q3 t% H& N4 |Transfer characteristics : PQ
7 H) f+ ~' ?' M/ yMatrix coefficients : BT.2020 non-constant
6 r# h" t6 q- S' vMastering display color primaries : Display P3% |( u0 X% t) |( ?
Mastering display luminance : min: 0.0001 cd/m2, max: 1000 cd/m2" T3 P2 k; W/ m
Maximum Content Light Level : 1000 cd/m2
& |  w. ]- D9 G3 ?0 b* kMaximum Frame-Average Light Level : 501 cd/m2
% p6 `" ~/ D2 _! _3 O2 ^  S1 ]+ R
) Q1 ?2 Q6 C" U% n- T* q& j$ _  Y
2 p2 D# d* \: x- u( o" g
Audio( x- c6 `$ d) A8 @) J6 y
ID : 2: [. N1 ]: p- T  t
Format : E-AC-3+ v, O0 n- M% t* h
Format/Info : Enhanced AC-3
+ Q5 k/ U0 [% A) B4 jCommercial name : Dolby Digital Plus: x/ I+ q0 F9 u3 z0 ^2 u
Codec ID : A_EAC3; d; \4 R- F$ B# ~% q/ m+ x
Duration : 1 h 38 min; R5 I* p/ r: F
Bit rate mode : Constant8 U( M! W; n1 I6 s. ^* ^) c
Bit rate : 640 kb/s5 n( b) t5 X  N  G6 s% g8 Y1 g* `& w
Channel(s) : 6 channels
3 U- b' ~7 `8 t. W1 _  c$ o8 ^0 DChannel layout : L R C LFE Ls Rs1 ~8 ~3 b- g1 V% J! w! Q
Sampling rate : 48.0 kHz- w" y5 S9 V6 w! q* M
Frame rate : 31.250 FPS (1536 SPF)
4 ^7 E2 i, ?* b% a1 KCompression mode : Lossy( @. C9 d# ]# b& b& n& w+ {
Stream size : 452 MiB (4%)# b( U1 j, K  n+ w8 k
Language : English
" d. X) b/ B" [1 {; `Service kind : Complete Main
. Z$ z4 w) _$ Z6 f- K! kDefault : Yes
9 @3 y( F" {% O/ |+ z1 ~+ z, hForced : No# g( d8 {1 b; x  p/ z3 s
" M! w1 E4 y# q5 b" A# M
, x- L/ a6 |% O) m
Text6 C9 t: `, @2 [& f8 O
ID : 3
1 A$ d" ?9 v  H) u2 X, ?& j% OFormat : UTF-8
4 T  D/ R; D5 @! @" E' UCodec ID : S_TEXT/UTF80 w/ W3 u5 a+ D2 W+ G
Codec ID/Info : UTF-8 Plain Text* C& q9 y4 G8 N9 N% g" P$ z% Q
Duration : 1 h 32 min3 c( X" o6 \- U/ `) y0 w& B
Bit rate : 70 b/s7 V2 K% R8 w0 j- ^0 g
Count of elements : 1400
+ x, u. _! ]- [2 S- ?Stream size : 47.5 KiB (0%)" y- Q& P2 A: K. p* b; y: j
Title : English
4 D. f3 A3 g- XLanguage : English
2 Q/ q/ n; g& U5 p" P9 ]Default : No% ?- m, V( F1 W6 u% Y
Forced : No
: e4 d& L5 Y' c
+ j8 f& q1 M. W$ d2 G
蓝光高清网提示您  点击下方附件名即可开始下载' e! v9 R: m1 j
2 ^/ n& b: D+ M6 r

% Y, d, K4 B# h( z, A# r8 s3 X燕尾服(台) / 特务踢死兔(港) / 神奇西服 / T.U.X./神奇燕尾服4K.The.Tuxedo.2002.HDR.2160p.WEB.h265-4K电影下载- j, W7 J( L8 Z2 r% n0 u
* y# y+ \9 U5 {" v8 r- n' k& a& c
神奇燕尾服 4K.The.Tuxedo.2002.HDR.2160p.WEB.h265【4K HDR 10.08 GB】
6 q1 o; v8 {. q2 T3 {7 L 神奇燕尾服4K.The.Tuxedo.2002.HDR.2160p.WEB.h265-RUMOUR.torrent (文件大小:54.66 KB)
加入蓝光高清网VIP会员  无限制下载本站所有资源---点这里

资源下载、资源播放、字幕使用、无法下载等常见问题---点这里
回复

使用道具 举报

您需要登录后才可以回帖 登录 | 立即注册

本版积分规则

烧友之家(蓝光高清网)本站内容部分由用户自主分享和转载自互联网,转载目的在于传递更多信息,并不代表本网赞同其观点和对其真实性负责。 如有侵权、违反国家法律政策行为,请联系我们,我们会第一时间及时清除和处理!
蓝光高清网 综合资讯平台
关注我们
  • 官方微信公众号
  • 扫码下载官方APP

X3.4 Licensed© 2001-2013 蓝光高清网 烧友之家APP |网站地图