[恐怖] 三十极夜2:黑暗的日子 30.Days.Of.Night.Dark.Days.2010.1080p.BluRay.x264.DTS-FGT 7.94GB

[复制链接]
蓝鸟VIP会员 永久VIP 发表于 2019-8-22 00:36:09 | 显示全部楼层 |阅读模式 打印 上一主题 下一主题

马上注册,轻松下载,海量资源,让你轻松玩转社区。

您需要 登录 才可以下载或查看,没有帐号?立即注册

x


◎译  名 三十极夜2:黑暗的日子/厄夜三十2/三十极夜2
◎片  名 30 Days of Night: Dark Days
◎年  代 2010
◎国  家 美国
◎类  别 恐怖
◎语  言 英语
◎上映日期 2010
◎IMDb评分  4.4/10 from 9,435 users
◎IMDb链接  http://www.imdb.com/title/tt1320304/
◎豆瓣评分 4.6/10 from 1,823 users
◎豆瓣链接 http://movie.douban.com/subject/3279143/
◎导  演 Ben Ketai
◎主  演 Kiele Sanchez
◎简  介
  在上一集后,女主角Stella离开阿拉斯加最北小镇巴罗(Barrow),前往洛杉矶,并告诉世人那里发生的恐怖事件。她的旅行引起了当地温暖气候下的女吸血鬼们的愤怒,Stella从此得知可能有一种办法可以救活被杀死的丈夫Eben。
Video
ID                                       : 1
Format                                   : AVC
Format/Info                              : Advanced Video Codec
Format profile                           : [email protected]
Format settings, CABAC                   : Yes
Format settings, ReFrames                : 5 frames
Codec ID                                 : V_MPEG4/ISO/AVC
Duration                                 : 1h 32mn
Bit rate                                 : 10.8 Mbps
Width                                    : 1 920 pixels
Height                                   : 1 040 pixels
Display aspect ratio                     : 1.85:1
Frame rate mode                          : Constant
Frame rate                               : 23.976 fps
Color space                              : YUV
Chroma subsampling                       : 4:2:0
Bit depth                                : 8 bits
Scan type                                : Progressive
Bits/(Pixel*Frame)                       : 0.226
Stream size                              : 6.81 GiB (86%)
Writing library                          : x264 core 105 r1724 b02df7b
Encoding settings                        : cabac=1 / ref=5 / deblock=1:0:0 / analyse=0x3:0x133 / me=umh / subme=7 / psy=1 / psy_rd=1.00:0.00 / mixed_ref=1 / me_range=16 / chroma_me=1 / trellis=1 / 8x8dct=1 / cqm=0 / deadzone=21,11 / fast_pskip=0 / chroma_qp_offset=-2 / threads=12 / sliced_threads=0 / nr=0 / decimate=1 / interlaced=0 / constrained_intra=0 / bframes=3 / b_pyramid=2 / b_adapt=1 / b_bias=0 / direct=1 / weightb=1 / open_gop=0 / weightp=2 / keyint=240 / keyint_min=25 / scenecut=40 / intra_refresh=0 / rc_lookahead=40 / rc=2pass / mbtree=1 / bitrate=10798 / ratetol=1.0 / qcomp=0.60 / qpmin=10 / qpmax=51 / qpstep=4 / cplxblur=20.0 / qblur=0.5 / ip_ratio=1.40 / aq=1:1.00
Language                                 : English
Default                                  : Yes
Forced                                   : No
Audio
ID                                       : 2
Format                                   : DTS
Format/Info                              : Digital Theater Systems
Mode                                     : 16
Format settings, Endianness              : Big
Codec ID                                 : A_DTS
Duration                                 : 1h 32mn
Bit rate mode                            : Constant
Bit rate                                 : 1 509 Kbps
Channel(s)                               : 6 channels
Channel positions                        : Front: L C R, Side: L R, LFE
Sampling rate                            : 48.0 KHz
Bit depth                                : 24 bits
Compression mode                         : Lossy
Delay relative to video                  : 11ms
Stream size                              : 998 MiB (12%)
Language                                 : English
Default                                  : Yes
Forced                                   : No
Text #1
ID                                       : 3
Format                                   : UTF-8
Codec ID                                 : S_TEXT/UTF8
Codec ID/Info                            : UTF-8 Plain Text
Language                                 : English
Default                                  : Yes
Forced                                   : Yes
Text #2
ID                                       : 4
Format                                   : UTF-8
Codec ID                                 : S_TEXT/UTF8
Codec ID/Info                            : UTF-8 Plain Text
Language                                 : English
Default                                  : No
Forced                                   : No
Menu
00:00:00.000                             : en:00:00:00.000
00:07:37.457                             : en:00:07:37.457
00:09:41.498                             : en:00:09:41.498
00:14:00.006                             : en:00:14:00.006
00:19:30.711                             : en:00:19:30.711
00:26:19.912                             : en:00:26:19.912
00:33:24.711                             : en:00:33:24.711
00:38:21.674                             : en:00:38:21.674
00:43:40.576                             : en:00:43:40.576
00:51:58.615                             : en:00:51:58.615
00:56:26.466                             : en:00:56:26.466
01:02:37.170                             : en:01:02:37.170
01:09:41.427                             : en:01:09:41.427
01:14:19.872                             : en:01:14:19.872
01:20:07.469                             : en:01:20:07.469
01:23:58.867                             : en:01:23:58.867

精彩剧照


                                       

蓝光高清网提示您 点击下方附件名称 马上开始下载



温馨提示:
本站资源优先使用迅雷下载,迅雷会员下载,速度基本可以跑满宽带
如果遇到无资源或者版权问题无法下载,推荐使用115网盘离线下载(点击查看115网盘离线下载教程


  • 该资源需要您回复以后 刷新网页进行下载操作

  • 1、30.Days.Of.Night.Dark.Days.2010.1080p.BluRay.x264.DTS-FGT.torrent 80KB 已下载 0 次

加入蓝光高清网VIP会员  无限制下载本站所有资源---点此加入

资源下载、资源播放、字幕使用、无法下载等常见问题---点这里

回复

使用道具 举报

懒得打字嘛,点击右侧快捷回复
高级模式
B Color Image Link Quote Code Smilies 上传

本版积分规则

关注0

粉丝0

帖子68429

发布主题
最新电影 论坛
广告位
联系我们
点击这里联系客服

服务时间:
周一到周日8:00-23:30

  • 打开微信扫一扫
    关注公众号

  • 手机QQ扫一扫
    添加客服

Archiver手机版蓝光高清网 ( 渝ICP备18006373号-2 )|网站地图

Powered by Discuz! X3.4  © 2001-2013 Comsenz Inc.