游客您好
第三方账号登陆
  • 点击联系客服

    在线时间:9:00-18:00

    客服QQ

    1371333023

    电子邮件

    lanniao@1080pro.net
  • 烧友之家APP

    随时掌握烧友资讯

  • 扫描二维码

    关注微信公众号

推荐阅读
蓝鸟
未知星球 | 未知职业
  • 关注0
  • 粉丝2
  • 帖子94112
精选帖子
开启左侧

黑洞表面 4kEvent.Horizon.1997.2160p.AMZN.WEB-DL.x265.10bit.HDR10Plus.DTS-HD.MA.5.1-4k电影下载—12.33 GB

[复制链接]
蓝鸟 发表于 2021-5-13 09:47:57 | 显示全部楼层 |阅读模式 打印 上一主题 下一主题
黑洞表面
上映时间:更早
类型:恐怖 科幻 悬疑 
地区:美国 
导演:保罗·安德森
主演:劳伦斯·菲什伯恩 / 山姆·尼尔 / 凯瑟琳·奎南
画质标准:4K HDR  封装音轨:DTS-HD.MA 5.1 
豆瓣评分:6.8分

加入蓝光高清网,轻松下载最新4k资源

您需要 登录 才可以下载或查看,没有帐号?立即注册

x
简       介2 b5 p( P2 C& @/ x
8 T4 g6 U7 f7 O

& p* n' F8 \; ^( D( V4 Q4 `% d# ?6 f: b  未来几十年内,人类探索利用太空的程度不断加深。2040年,利用空间扭曲技术深入宇宙的“新领域号”消失于海王星附近。6 R8 ?" W/ ]$ W& C9 G/ W
  2047年,新领域号突然在海王星发回讯号,内容似乎为求救,于是当年设计新领域号的威尔博士(Sam Neill 饰)受命乘坐营救船“路易与克拉克”号前去施救。船长米勒(Laurence Fishburnes 饰)不甚友好,所幸路易与克拉克号很快按计划与新领域号对接。虽然生命扫描显示新领域号充满生命迹象,但搜寻之后营救队发现所有船员均死亡或消失,新领域号内制造黑洞的核心动力部分产生的震荡破坏了路易与克拉克号的外壳,营救队被迫暂时停留。
8 s4 |, N$ D1 |6 C( t  新领域号残留的影像记录将当时血腥的一幕呈现给所有人,同时营救队员们被幻象所困——他们分别看到了自己心中无法释怀的伤痛。队员们陷入了崩溃的边缘。然而更令人惊异的是,新领域号似乎具有了生命。威尔博士相信新领域号的变化是由于它进入过地狱,米勒船长为了拯救队员们和威尔展开了生死对决……
- ^1 @# g2 o5 ~! {$ C0 M3 _
/ P# ~9 V9 `& t  y6 A
* s. O8 t7 X9 i5 W7 f
影片参数
+ P2 }1 ~9 c0 f
撕裂地平线 / 异煞 / 地平线事件 / 黑洞吸入线号飞船/黑洞表面4kEvent.Horizon.1997.2160p.AMZN.WEB-DL.x265.10bit.HDR10Plus.DTS-HD.MA.5.1-4k电影信息
3 r" `1 ?- @, Y/ R5 wVideo% o, b* b7 _5 P
ID : 1
  w* {. |! i. z* Z4 A0 B6 ZFormat : HEVC
+ S- g2 }2 F! G  bFormat/Info : High Efficiency Video Coding2 M4 m) [9 K, ?. Y! W& k" S" J, K! `: d
Format profile : Main 10@L5@Main. e* ]0 _# ]& @8 A
HDR format : SMPTE ST 2094 App 4, Version 1, HDR10+ Profile B compatible
# u, K& n: M7 DCodec ID : V_MPEGH/ISO/HEVC
" H7 R* u  j  Z- J$ m+ uDuration : 1 h 35 min4 D4 A7 y" u( S' c; e0 N
Bit rate : 14.9 Mb/s
+ i& G# v( k% A. m9 t- yWidth : 3 840 pixels
0 t# }: N. ]8 r. s, JHeight : 1 632 pixels9 j# d) _* H) }  [, X
Display aspect ratio : 2.35:1
9 ?* ?  e; x( Z* O1 u9 }. lFrame rate mode : Constant
; {; P2 @- S. l* w  s& D" t' cFrame rate : 23.976 (24000/1001) FPS" V5 Y, ^' n& l+ v) R+ w5 a( G
Color space : YUV
, \- W$ G2 x0 H+ {* `* BChroma subsampling : 4:2:0& n  `$ l" l; U
Bit depth : 10 bits
, I" S. f& n# X! g3 Q( U8 B# oBits/(Pixel*Frame) : 0.099" t4 Z) U4 A" T
Stream size : 10.0 GiB (81%)$ D1 {; b6 a  h+ K" x8 X
Language : English* U: f! t, I- ?
Default : Yes+ N% D; v! _+ c3 t$ U
Forced : No
, c0 Q8 A# l, T' L  t; M' h! }4 ~, kColor range : Limited
2 U- i3 L$ H' g/ K8 ^Color primaries : BT.2020
" @2 R2 a% x; F. w3 o, r1 P3 |; NTransfer characteristics : PQ0 C9 O! M( s  `  S0 j8 V
Matrix coefficients : BT.2020 non-constant0 z6 Z( S1 D) D0 F% b# ^. P& z
Mastering display color primaries : Display P39 T( l& M& ?1 r- |
Mastering display luminance : min: 0.0001 cd/m2, max: 1000 cd/m2
! V; B" U# n8 t1 g+ tMaximum Content Light Level : 1000 cd/m2
% U: C9 N) X0 J& JMaximum Frame-Average Light Level : 553 cd/m29 n4 R4 H9 b3 i) U4 ]
3 l8 _0 q0 X) E' v" S/ s. g; w9 q
6 {5 K* {# p* B0 E2 Z2 r- r( W
Audio #11 C7 H  \) j" k1 W( `- s1 q  z8 ~
ID : 2
/ z; J. Q& r# WID in the original source medium : 4352 (0x1100). d7 I1 T  d/ H. M9 T3 e, l+ H9 C
Format : DTS XLL
& S4 O9 ]" Y# p/ AFormat/Info : Digital Theater Systems8 Y6 l" k3 d4 a
Commercial name : DTS-HD Master Audio
" O2 _; ?7 N  F' B( J, UCodec ID : A_DTS
1 q6 A$ N+ N/ o- S5 fDuration : 1 h 35 min* r% E6 S9 _' n" o, ]& g
Bit rate mode : Variable5 t& f7 b, I0 ]' E! ~# `  y6 U
Bit rate : 2 803 kb/s
$ v/ T3 b4 N+ \! _" nChannel(s) : 6 channels
; r0 x0 Q/ ^: s) ]6 ]4 D3 WChannel layout : C L R Ls Rs LFE( x! h6 v. m0 `" e& s% Z0 ^
Sampling rate : 48.0 kHz7 N; j$ ~' {: H6 ]( e! |
Frame rate : 93.750 FPS (512 SPF)' R& g) M0 X/ ?$ l; C
Bit depth : 24 bits1 q( s+ b5 S: d7 T: _: d5 Z
Compression mode : Lossless6 S$ ~! u6 s% ~
Stream size : 1.88 GiB (15%)
4 [" m' {( b7 b% q1 M- lTitle : DTS-HD MA 5.1/ E8 Z7 x  d0 }& N1 k" U
Language : English! x: P, D" s. {, v! a
Default : Yes
0 m4 z. P  ], Y% o% sForced : No* t0 {- _9 a. b, X: {
Original source medium : Blu-ray
( F$ y. o( _, \$ K; J: T* |; s* g$ N6 y5 E# c2 J

% o) w! a9 R9 Q, O% B- u& r3 kAudio #2
0 c3 R& q0 b5 H% \5 c, QID : 38 T2 |  S5 G% `, o0 g9 C
Format : E-AC-3, J4 J- H: e9 u+ q; s) U
Format/Info : Enhanced AC-3
# _( `, ~- Q/ b& e: B# M2 uCommercial name : Dolby Digital Plus
/ `* A8 K2 s& t6 z0 C7 WCodec ID : A_EAC3
3 h) d4 ~/ C8 U) QDuration : 1 h 35 min
3 b3 k% `5 M3 tBit rate mode : Constant( g2 E) ?0 ~$ C7 W" H0 q
Bit rate : 640 kb/s/ w* x/ h) N9 p- N$ h! w* |+ g
Channel(s) : 6 channels. r( s& c; L, d2 q5 O1 a
Channel layout : L R C LFE Ls Rs
# K3 m9 O2 x6 a1 @: |3 K3 _Sampling rate : 48.0 kHz. [! w1 @& B7 z
Frame rate : 31.250 FPS (1536 SPF)3 ^6 r- E( d+ n$ \: [8 B/ J! H
Compression mode : Lossy9 k' a$ {6 P# q9 ^% a0 e$ r* p
Stream size : 439 MiB (3%)6 P5 O- p% ~/ ?4 \
Title : DDP 5.1" K) O. i) z5 R8 ^: u
Language : English
' j0 {; `8 U! gService kind : Complete Main
) P6 z- ^* S. A2 B8 k. B- ?2 HDefault : No
+ c2 s( Z# ]! eForced : No
( @: ~, J* P# B2 G- R

+ j0 B) {: O2 k  d# a蓝光高清网提示您  点击下方附件名即可开始下载
- C& m1 ]  |! f7 n, d2 N/ }' t+ s$ t! E$ j

  @  E5 ~# p! K0 ~& t. z# B撕裂地平线 / 异煞 / 地平线事件 / 黑洞吸入线号飞船/黑洞表面4k Event.Horizon.1997.2160p.AMZN.WEB-DL.x265.10bit.HDR10Plus.DTS-HD.MA.5.1-4k电影下载
% \+ d) q- ?# S+ ]. Z5 f4 z+ L- K- G. D- O. x
黑洞表面4k Event.Horizon.1997.2160p.AMZN.WEB-DL.x265.10bit.HDR10Plus.DTS-HD.MA.5.1【4K HDR 12.33 GB】
4 {" `; u  `! |! w1 v4 o4 T% u 黑洞表面4K.Event.Horizon.1997.2160p.AMZN.WEB-DL.x265.10bit.HDR10Plus.DTS-.torrent (文件大小:62.35 KB)
加入蓝光高清网VIP会员  无限制下载本站所有资源---点这里

资源下载、资源播放、字幕使用、无法下载等常见问题---点这里
回复

使用道具 举报

精彩评论1

ggang1 发表于 2021-5-14 10:44:22 | 显示全部楼层
感谢楼主分享
回复 支持 反对

使用道具 举报

您需要登录后才可以回帖 登录 | 立即注册

本版积分规则

烧友之家(蓝光高清网)本站内容部分由用户自主分享和转载自互联网,转载目的在于传递更多信息,并不代表本网赞同其观点和对其真实性负责。 如有侵权、违反国家法律政策行为,请联系我们,我们会第一时间及时清除和处理!
蓝光高清网 综合资讯平台
关注我们
  • 官方微信公众号
  • 扫码下载官方APP

X3.4 Licensed© 2001-2013 蓝光高清网 烧友之家APP |网站地图