游客您好
第三方账号登陆
  • 点击联系客服

    在线时间:9:00-18:00

    客服QQ

    1371333023

    电子邮件

    lanniao@1080pro.net
  • 烧友之家APP

    随时掌握烧友资讯

  • 扫描二维码

    关注微信公众号

推荐阅读
蓝鸟
未知星球 | 未知职业
  • 关注0
  • 粉丝2
  • 帖子94105
精选帖子
开启左侧

那些希望我死的人 4K.Those.Who.Wish.Me.Dead.2021.2160p.HMAX.WEB-DL.x265.10bit.HDR.DD5.1-4k电影下载—12.56 GB

[复制链接]
蓝鸟 发表于 2021-5-16 16:25:54 | 显示全部楼层 |阅读模式 打印 上一主题 下一主题
那些希望我死的人
上映时间:更早
类型:动作 剧情 惊悚 
地区:美国 
导演:泰勒·谢里丹
主演:安吉丽娜·朱莉 / 乔·博恩瑟 / 尼古拉斯·霍尔特 / 艾丹·吉伦 / 泰勒·派瑞
画质标准:4K HDR  封装音轨:Dolby TrueHD 5.1 
豆瓣评分:6.7分

加入蓝光高清网,轻松下载最新4k资源

您需要 登录 才可以下载或查看,没有帐号?立即注册

x
本帖最后由 蓝鸟 于 2021-5-16 16:27 编辑
( q$ H+ }& m9 a. \8 g
. t8 y* T8 U& E) O+ E简       介8 X( }% n  w7 {; Z0 Q3 d2 p
0 j! d) s5 I& R+ n4 Z3 \
6 z$ o( ~6 G3 b. q5 p
  一名十几岁的凶案证人发现自己在蒙大拿州的荒野中被两名刺客追杀,一名求生专家负责保护他-——而一场森林大火危及他们所有人。. `& X  |' ^" s7 L& h- Q6 @

1 ?2 G+ L. ]0 e! c. C, H9 Y
& A. \5 G7 s* a4 t: L" ]$ i+ p4 Q
影片参数" O0 i. [5 J1 W* m! ~. V! Z  ^- \
灭我者(港) / 那些要我死的人(台) / 盼我死者/那些希望我死的人4K.Those.Who.Wish.Me.Dead.2021.2160p.HMAX.WEB-DL.x265.10bit.HDR.DD5.1-4k电影信息8 @9 L- M# N: K( d' i" ]. i
Video
  h+ O& c5 v* K0 G/ Q* {ID : 1+ e% A; ^5 ?+ O9 R( I% f
Format : HEVC
/ n; [1 a& X, R' {, iFormat/Info : High Efficiency Video Coding
) ~; b; o& n2 x% N6 s& l! _5 g7 Q! q$ |Format profile : Main 10@L5@Main& a  x5 V7 l& A& U% w
HDR format : SMPTE ST 2086, HDR10 compatible
& Z- f/ U, i* s/ k( TCodec ID : V_MPEGH/ISO/HEVC
! r5 d; y2 C2 X' BDuration : 1 h 39 min. E* y- D+ j. ~9 A/ I
Bit rate : 17.7 Mb/s
1 y3 U) v3 `% rWidth : 3 840 pixels6 [. E  ~+ `6 x& h4 S
Height : 2 160 pixels+ @5 F! {. J& ^. T4 _) a/ N
Display aspect ratio : 16:9. ?' }* m( V6 h3 k( `8 d6 k
Frame rate mode : Constant
' h5 C: h  s1 N# m+ [0 Z+ cFrame rate : 23.976 (24000/1001) FPS
8 G/ |' @2 F0 ]; w: u# d2 M8 ~Color space : YUV
$ v" p5 N; X! e0 O( B' CChroma subsampling : 4:2:0* B$ q- x6 \: O7 h- M
Bit depth : 10 bits
- A3 C5 M  d/ M, UBits/(Pixel*Frame) : 0.089! d4 w% Y9 d( ?/ j* q
Stream size : 12.3 GiB (98%)5 p9 l. K8 c- O1 E1 M+ _
Writing library : x265 3.4hy:[Linux][GCC 7.5.0][64 bit] 10bit
, s/ {# B+ b, K9 ]- V. e! _9 ?Encoding settings : cpuid=1111039 / frame-threads=1 / wpp / no-pmode / no-pme / no-psnr / no-ssim / log-level=2 / input-csp=1 / input-res=3840x2160 / interlace=0 / total-frames=0 / level-idc=0 / high-tier=1 / uhd-bd=0 / ref=4 / no-allow-non-conformance / repeat-headers / annexb / no-aud / no-hrd / info / hash=0 / no-temporal-layers / no-open-gop / min-keyint=96 / keyint=96 / gop-lookahead=0 / bframes=3 / b-adapt=2 / b-pyramid / bframe-bias=0 / rc-lookahead=25 / lookahead-slices=4 / scenecut=40 / hist-scenecut=0 / radl=0 / no-splice / no-intra-refresh / ctu=64 / min-cu-size=8 / rect / no-amp / max-tu-size=32 / tu-inter-depth=1 / tu-intra-depth=1 / limit-tu=0 / rdoq-level=2 / dynamic-rd=0.00 / no-ssim-rd / signhide / no-tskip / nr-intra=0 / nr-inter=0 / no-constrained-intra / strong-intra-smoothing / max-merge=3 / limit-refs=3 / limit-modes / me=3 / subme=3 / merange=57 / temporal-mvp / no-frame-dup / no-hme / weightp / no-weightb / no-analyze-src-pics / deblock=0:0 / sao / no-sao-non-deblock / rd=4 / selective-sao=4 / no-early-skip / rskip / no-fast-intra / no-tskip-fast / no-cu-lossless / no-b-intra / no-splitrd-skip / rdpenalty=0 / psy-rd=2.00 / psy-rdoq=1.00 / no-rd-refine / no-lossless / cbqpoffs=0 / crqpoffs=0 / rc=abr / bitrate=18000 / qcomp=0.60 / qpstep=4 / stats-write=0 / stats-read=2 / cplxblur=20.0 / qblur=0.5 / vbv-maxrate=24500 / vbv-bufsize=24500 / vbv-init=0.6 / vbv-end=0.6 / vbv-end-fr-adj=0.0 / ipratio=1.40 / pbratio=1.30 / aq-mode=2 / aq-strength=1.00 / cutree / zone-count=0 / no-strict-cbr / qg-size=32 / no-rc-grain / qpmax=69 / qpmin=0 / no-const-vbv / sar=0 / overscan=0 / videoformat=5 / range=0 / colorprim=9 / transfer=16 / colormatrix=9 / chromaloc=0 / display-window=0 / master-display=G(13250,34500)B(7500,3000)R(34000,16000)WP(15635,16450)L(40000000,50) / cll=555,129 / min-luma=0 / max-luma=1023 / log2-max-poc-lsb=8 / vui-timing-info / vui-hrd-info / no-concatenation / slices=1 / no-opt-qp-pps / no-opt-ref-list-length-pps / no-multi-pass-opt-rps / scenecut-bias=0.05 / hist-threshold=0.01 / no-opt-cu-delta-qp / no-aq-motion / hdr10 / no-hdr10-opt / no-dhdr10-opt / no-idr-recovery-sei / analysis-reuse-level=0 / analysis-save-reuse-level=0 / analysis-load-reuse-level=0 / scale-factor=0 / refine-intra=0 / refine-inter=0 / refine-mv=1 / refine-ctu-distortion=0 / no-limit-sao / ctu-info=0 / no-lowpass-dct / refine-analysis-type=0 / copy-pic=1 / max-ausize-factor=1.0 / no-dynamic-refine / no-single-sei / no-hevc-aq / no-svt / no-field / qp-adaptation-range=1.00 / no-scenecut-aware-qpconformance-window-offsets / right=0 / bottom=0 / decoder-max-rate=0
' h9 u% X$ ^/ W" X# }7 h( c. X6 t5 KDefault : Yes
. r2 i7 A% O" H) O' D: IForced : No+ k( m8 }/ }6 ?9 A! B
Color range : Limited- ]& I$ V2 C! e) [  m' _* K' [8 a
Color primaries : BT.2020" @# i1 W* U9 Y5 |
Transfer characteristics : PQ9 E+ @2 Q. ]: W4 v7 z7 J
Matrix coefficients : BT.2020 non-constant
! X2 _7 e6 `- o7 L  A0 LMastering display color primaries : Display P39 Q3 m* q) w% T+ `1 _1 F
Mastering display luminance : min: 0.0050 cd/m2, max: 4000 cd/m2
" H0 L! l0 }3 DMaximum Content Light Level : 555 cd/m2: b1 Z" T6 m1 h8 p$ w( R# J
Maximum Frame-Average Light Level : 129 cd/m2( I' h. y+ Q' I7 N4 d
, ~3 \" V4 u9 \4 \; |

2 t8 P4 U' _' G4 OAudio
+ d' {6 z, F/ YID : 24 X( V" K; k1 ^, r" Z  T
Format : AC-3, M- j" l" O: A( ?& q
Format/Info : Audio Coding 3
( a2 ?9 E7 S6 n) [- aCommercial name : Dolby Digital
$ |2 r. E3 I, TCodec ID : A_AC38 P& L( [0 c2 p9 E
Duration : 1 h 39 min) m5 l# X% ?; ~
Bit rate mode : Constant9 I& H" m( N, w. G# o  }* N
Bit rate : 384 kb/s9 k+ F5 d& n- M$ ?4 o
Channel(s) : 6 channels
% V6 r5 B( H: x8 F7 b. ~1 G& Q/ UChannel layout : L R C LFE Ls Rs5 [' i# c5 r7 c6 g6 f: ~- {# [* h
Sampling rate : 48.0 kHz* J) H, V5 B1 B$ ~$ M. p* ~
Frame rate : 31.250 FPS (1536 SPF)3 }3 z/ M7 m! i1 p, I* }
Compression mode : Lossy
) A$ ~+ [9 s+ Z5 E) e; x( yStream size : 274 MiB (2%)" v* O1 g, p2 }
Title : DD 5.11 x- G! _# k- y( Z" S4 h9 H* B' f
Language : English
5 w5 A/ E8 e" X& i* zService kind : Complete Main5 X, j1 Y1 K$ s( s
Default : Yes6 \' Y* L( p/ _) M1 F  O
Forced : No
2 B9 p. ?5 v$ E- h% @* z- [6 O' t1 u& w: r2 m; P- ?# `, R- a

( L- B" V+ S/ f% Y. ]5 H& RText' ^+ v/ i9 \0 C# H+ l* [
ID : 3
: M/ Q3 l0 U! `* [( MFormat : UTF-8
. X/ |3 H# q7 W8 u2 DCodec ID : S_TEXT/UTF8
2 _" j  }& m- @1 j6 Y, l( Z7 q3 U5 ICodec ID/Info : UTF-8 Plain Text
! g) W$ H/ Y  c/ P4 I) V+ `* ?Duration : 1 h 35 min
, H5 B$ k/ V- _7 `; [1 \; QBit rate : 47 b/s
8 n. N$ S( S' f/ k. z0 b' D8 nCount of elements : 1113
4 L1 Q& r) Y3 y+ z" E; zStream size : 33.4 KiB (0%)  ]0 r8 k) e8 l! T6 `
Title : English4 I6 |$ A/ d9 t2 X4 p
Language : English
2 J; V1 j: T$ z6 I9 D% QDefault : No$ F! R5 f- ^) t2 k
Forced : No
1 l' e/ y3 b- J' Q, B# w( s& A- I
蓝光高清网提示您  点击下方附件名称  马上开始下载/ w. F& V! J8 F/ o) M& Z! m
; C$ }( U/ t9 i# i; n

: j; G1 ]6 E# J7 J多版本下载时请注意区分% H4 J* H6 z% R& }. S5 E: c- D9 D

6 {* A$ P. U) H/ B

, P; B& J( I+ d9 H' K灭我者(港) / 那些要我死的人(台) / 盼我死者/那些希望我死的人4K.Those.Who.Wish.Me.Dead.2021.2160p.HMAX.WEB-DL.x265.10bit.HDR.DD5.1-4K电影信息' F% C1 H# ]( L) P) F0 g

( v( W/ [/ z. b

% s( j) w* |% t0 ]那些希望我死的人4K.Those.Who.Wish.Me.Dead.2021.2160p.HMAX.WEB-DL.x265.10bit.HDR.DD5.1【4K HDR 12.56 GB】
, [8 l( \- y  N( X 那些希望我死的人4K.Those.Who.Wish.Me.Dead.2021.2160p.HMAX.WEB-DL.x265.10b.torrent (文件大小:63.48 KB)
加入蓝光高清网VIP会员  无限制下载本站所有资源---点这里

资源下载、资源播放、字幕使用、无法下载等常见问题---点这里
回复

使用道具 举报

精彩评论2

ggang1 发表于 2021-5-17 09:45:07 | 显示全部楼层
( O- {5 D% S( g& ~
谢楼主分享
回复 支持 反对

使用道具 举报

教授主任医师老手机认证 发表于 2021-5-18 16:18:17 | 显示全部楼层
垃圾电影。不值得下载。
回复 支持 反对

使用道具 举报

您需要登录后才可以回帖 登录 | 立即注册

本版积分规则

烧友之家(蓝光高清网)本站内容部分由用户自主分享和转载自互联网,转载目的在于传递更多信息,并不代表本网赞同其观点和对其真实性负责。 如有侵权、违反国家法律政策行为,请联系我们,我们会第一时间及时清除和处理!
蓝光高清网 综合资讯平台
关注我们
  • 官方微信公众号
  • 扫码下载官方APP

X3.4 Licensed© 2001-2013 蓝光高清网 烧友之家APP |网站地图