游客您好
第三方账号登陆
  • 点击联系客服

    在线时间:9:00-18:00

    客服QQ

    1371333023

    电子邮件

    lanniao@1080pro.net
  • 烧友之家APP

    随时掌握烧友资讯

  • 扫描二维码

    关注微信公众号

推荐阅读
蓝鸟
未知星球 | 未知职业
  • 关注0
  • 粉丝2
  • 帖子94112
精选帖子
开启左侧

幸福终点站4k The.Terminal.2004.2160p.WEB-DL.x265.8bit.SDR.DTS-HD.MA.5.1-4k电影下载—17.56 GB

[复制链接]
蓝鸟 发表于 2021-6-7 10:24:00 | 显示全部楼层 |阅读模式 打印 上一主题 下一主题
幸福终点站
上映时间:2004年
类型:喜剧 剧情 爱情 
地区:美国 
导演:史蒂文·斯皮尔伯格
主演:汤姆·汉克斯 / 凯瑟琳·泽塔-琼斯 / 斯坦利·图齐 / 齐·麦克布赖德 / 迭戈·卢纳
画质标准:4K SDR  封装音轨:DTS-HD.MA 5.1 
豆瓣评分:8.8分

加入蓝光高清网,轻松下载最新4k资源

您需要 登录 才可以下载或查看,没有帐号?立即注册

x
简       介
5 q6 h1 R( y$ M$ h; a3 V( N' T  A3 L( a& W* m8 }  J, F% X
( T6 H. z  ?8 {
  为了完成父亲的心愿,维克多(汤姆•汉克斯 Tom Hanks 饰)从故国乘坐飞机前往美国肯尼迪机场,但戏剧性的事情发生了:他被告知祖国发生政变,而他的身份证护照一一失效,同时他的签证也无法再使用。进退两难的维克多只有在机场滞留,等待新证件的办理。, d! [& Q4 k) L2 g
  但是,他在机场等待了整整9个月。在这9个月里面,他用机场的洗手间洗漱,在候机室睡觉,他已经学懂因地制宜,在机场照料自己的生活,甚至还找了一份建筑工地工作。然而维克多的邋遢晦气却招来了机场负责人弗兰克(史坦利•图齐 Stanley Tucci 饰)的不满,而恐怕更令他气愤妒忌的是,美丽的空姐艾米利亚(凯瑟琳•泽塔-琼斯 Catherine Zeta-Jones 饰)竟然爱上了维克多。处在甜蜜中的维克多,也在慢慢观察机场的人生百态,自得其乐。

; N/ {) k  w% O6 G7 W( n/ `: K9 W
5 k% B: ]$ H5 w5 x" }
. X4 m4 }$ ?* [% |9 {: T: R
影片参数( Z+ N- J. c( Q0 g8 K- d3 E3 H
机场客运站(港) / 航站情缘(台) / 航站奇缘 / 单程机票航站奇缘 / 候机楼 / 单程机票 / 爱你无国界/幸福终点站4k The.Terminal.2004.2160p.WEB-DL.x265.8bit.SDR.DTS-HD.MA.5.1-4k电影信息; ^0 p; i" U$ \+ b
Video
$ K' }& d) r9 m: ^- {% p+ e, dID : 1
( I. A7 w% W, B( zFormat : HEVC7 }; f6 V+ B$ |8 W5 p: J3 U
Format/Info : High Efficiency Video Coding
) j. \7 B  e& A; V9 o2 v' l" KFormat profile : Main@L5@High
7 F) A0 E: a8 F  P! |  ACodec ID : V_MPEGH/ISO/HEVC
( K* o& y+ J% e/ \5 ?Duration : 2 h 8 min; Z* X9 F: r. W7 }  k- a5 ^0 W
Bit rate : 15.0 Mb/s% @- i$ \8 V7 m/ L- O3 g
Width : 3 840 pixels7 \/ X% ]. [) H& s5 L
Height : 2 160 pixels
- e* v3 h, L0 ]Display aspect ratio : 16:9
5 ?0 |- ]( Q  P' \Frame rate mode : Constant/ |" k  C7 c1 O1 C1 F6 }7 `* F
Frame rate : 23.976 (24000/1001) FPS3 x( O3 S/ C& V2 f3 ~! P
Color space : YUV
! y( |: @( z3 @" b0 |5 lChroma subsampling : 4:2:0
0 j' p! |+ e. t' ]! W1 uBit depth : 8 bits( K; w2 v' s) r# {
Bits/(Pixel*Frame) : 0.075' l% @: C: g; S
Stream size : 13.5 GiB (77%): v$ s9 o5 e2 N8 z+ o
Default : Yes
# A) b+ Y) x: G6 ]" H/ jForced : No' h+ L2 B- @# Y9 v# O# h( L
Color range : Limited- l/ w6 n  Q6 P) `
Matrix coefficients : BT.709* d( |: ]5 e& r$ G3 y$ G
$ b' U5 v6 N- x! [( b! x

) _& e* _& g- Y, G( QAudio #1% A' C0 X2 g2 o: [2 s9 u6 J# d# @
ID : 2' K! v  a% Z% P" u: E
Format : DTS XLL7 X; {! ]' p2 A' Z2 n" V0 M+ W
Format/Info : Digital Theater Systems
) Q# J) m0 E1 n' ~# zCommercial name : DTS-HD Master Audio% t7 ^* g) i2 ~/ G; ]/ S8 d/ T
Codec ID : A_DTS+ A2 W0 @; r$ o0 F+ I$ B
Duration : 2 h 8 min, P. ~7 t# y; g5 v! n: i0 P/ o  T$ j
Bit rate mode : Variable
* S  i0 K1 g- f$ X) B3 \* LBit rate : 4 087 kb/s8 r! N* f! Z& N  x3 t
Channel(s) : 6 channels
8 R& Q: I: }+ q5 TChannel layout : C L R Ls Rs LFE3 _7 j0 ^* I  u. }6 F  }6 z) n
Sampling rate : 48.0 kHz2 E+ M# N& n- c; _/ t
Frame rate : 93.750 FPS (512 SPF): H  b3 J1 h  x8 F' [% E6 Q
Bit depth : 24 bits
, j! ?0 _5 R* A6 rCompression mode : Lossless( n# C, A( B, F( b
Delay relative to video : 1 s 450 ms9 G! X, Z( H6 b9 p1 n
Stream size : 3.68 GiB (21%)% R9 U  W9 Q& s) i1 k
Title : DTS-HD MA 5.1
) X- s/ v  j9 Q. xLanguage : English( i6 ]6 |" d6 Q
Default : Yes
; T% V4 [$ u% ^Forced : No* r8 ?' t6 ]  c
) m2 X/ v2 E/ l

* ~3 N. v2 K( J8 v5 ^# KAudio #2
. E$ h! Z/ s5 M( }- a8 S& v7 kID : 3
1 U' N5 w2 Q9 }5 YFormat : AAC LC
. p% t7 }3 Q; ?/ e) ZFormat/Info : Advanced Audio Codec Low Complexity
3 G3 X& N& u/ Q' x% D0 L+ cCodec ID : A_AAC-2) H0 P" n9 w* x0 `0 Q  E% j
Duration : 2 h 8 min$ Z& f- a: L$ s% t2 x, O
Bit rate : 445 kb/s8 r' B! b7 E5 Q1 t) [
Channel(s) : 6 channels9 X& ~. Z" x0 e; q+ k
Channel layout : C L R Ls Rs LFE
) l, P% u! Z9 ?/ M' P- V4 eSampling rate : 48.0 kHz
. W  R! V" _- \6 W7 O# JFrame rate : 46.875 FPS (1024 SPF)
9 z: ?2 {- l" |  P2 a+ t0 iCompression mode : Lossy
% J- _8 H# K9 f1 oStream size : 410 MiB (2%)
( n: u4 x( Q6 }$ zLanguage : English4 X, K% t4 Z+ D
Default : No
2 {. |7 Z( p4 ^7 kForced : No! K7 ~2 u5 y) S, t' B7 n1 F
9 {2 ^, b( E7 V

$ [; J' b; l) a$ D4 KText
( {! b/ I) [, IID : 49 Q9 b6 q" q) p) x
Format : UTF-8- F  g: T5 h1 u! {. V
Codec ID : S_TEXT/UTF8+ U4 X$ y2 N5 F/ }! o3 n
Codec ID/Info : UTF-8 Plain Text
9 W+ v/ Z0 @/ |$ B4 yDuration : 2 h 0 min
5 X: Y# E3 `2 Q, n8 g  z& _Bit rate : 64 b/s
- W5 {6 E, R& R5 UCount of elements : 1884- o6 O8 n3 o" s/ f# e
Stream size : 56.7 KiB (0%)1 ^; W! k1 L- u6 O4 t) [4 y
Title : English
, [1 H5 u$ u0 ELanguage : English6 y9 v/ V; z2 I' ?
Default : Yes
# q& f4 Y, I* T) qForced : No
2 N' E6 H$ D  }9 B: @  f1 x# H, h0 u# f# h1 d
; H5 `4 t0 g* p: H# W
Menu
1 \9 b& w4 R6 O' W; B: q00:00:00.000 : Main Title0 \4 q1 V( e' N3 T  `5 c1 H
00:03:15.070 : Crack in the System
8 g, |) e2 M' e" k00:08:59.289 : America Closed3 w1 s1 V4 L3 c% C3 s4 Y
00:14:02.050 : Do You Have an Appointment?) s1 r- Z- F+ m- C
00:15:27.260 : Gate 67
" ~/ E. x7 D6 z: H9 V- o% H2 ?00:18:34.447 : Acting Field Commissioner  l* l( s- B" {! y% h$ Z4 x& V; E
00:20:25.641 : Unacceptable( g0 \( L; s. e( L- G! R" T% y
00:23:04.258 : Unhooking the Fish9 _5 x1 w4 q8 G8 \4 R/ O/ z$ M
00:27:40.325 : Sensible Heels7 E* k7 I1 J9 t" o8 F) s: f
00:29:41.863 : The Carts* G7 B: {4 P( P( H7 o! J4 \1 s5 D) O
00:32:28.572 : 50/50
  ]# C: R4 ]0 N; X: X! E' s00:35:06.187 : You Feed Me, I'll Feed You5 w$ L3 p6 |% N- `: |: u3 a% X! g
00:41:22.146 : Crowded" j; H4 x& P% B
00:47:21.297 : Observations- a4 ?( f) J8 Y( Q+ ^* |+ ]
00:52:10.169 : The Position Has Been Filled- E$ E1 y) c. U; f$ g
00:57:34.076 : After Hours
, `- ?9 Y& x* x  v0 P8 O3 b& W01:00:36.341 : Rewriting History
9 H% d  ?# ^1 [, k$ ]( f01:05:59.998 : The Inspection
& @, ]2 w; e' y3 u/ C01:16:04.560 : If I Stay, You Stay
, D& @$ R' f, c# m* [1 U01:18:18.652 : The Dinner Appointment& x$ u) W+ h9 ?; ^9 s: X
01:29:05.674 : Tokens of Love+ t% g2 K, d2 J: C. y6 z' c
01:32:53.860 : Why Viktor Navorski?
8 y) _3 _5 Q7 c8 e" l1 ~9 A; v01:35:16.002 : Keeping Promises
6 V0 \' M  @) I. t01:42:00.114 : The War Is Over- y% D# ?( n# r4 a% e* f- L9 ^+ o
01:48:59.491 : Family
0 B- F: ~/ a$ Q9 K+ T0 ]01:51:01.071 : Viktor's Leaving!
2 Z9 Q% J# a5 G8 O: G& ^& g01:57:51.940 : 161 Lexington
, M7 t9 m  K' ?& x  o) x2 \02:01:33.703 : End Credits

6 p+ E; J6 S! m( ?9 i' ^蓝光高清网提示您  点击下方附件名称  马上开始下载
$ y: Z" a& _" A4 @0 R- \2 ]% p* K% g4 W! D. o& Z
: G+ d" C4 z" f1 Q% g9 p
机场客运站(港) / 航站情缘(台) / 航站奇缘 / 单程机票航站奇缘 / 候机楼 / 单程机票 / 爱你无国界/幸福终点站4k The.Terminal.2004.2160p.WEB-DL.x265.8bit.SDR.DTS-HD.MA.5.1-4k电影下载. _' f" K1 [6 G3 Z3 X

( F0 ?, f7 j$ v+ O幸福终点站4k The.Terminal.2004.2160p.WEB-DL.x265.8bit.SDR.DTS-HD.MA.5.1【17.56GB】
3 P1 I3 Q$ I6 K/ o! ^ 幸福终点站4k The.Terminal.2004.2160p.WEB-DL.x265.8bit.SDR.DTS-HD.MA.5.1-S.torrent (文件大小:88.46 KB)
加入蓝光高清网VIP会员  无限制下载本站所有资源---点这里

资源下载、资源播放、字幕使用、无法下载等常见问题---点这里
回复

使用道具 举报

精彩评论1

ggang1 发表于 2021-6-8 09:13:54 | 显示全部楼层
发贴辛苦,谢谢分享
回复 支持 反对

使用道具 举报

您需要登录后才可以回帖 登录 | 立即注册

本版积分规则

烧友之家(蓝光高清网)本站内容部分由用户自主分享和转载自互联网,转载目的在于传递更多信息,并不代表本网赞同其观点和对其真实性负责。 如有侵权、违反国家法律政策行为,请联系我们,我们会第一时间及时清除和处理!
蓝光高清网 综合资讯平台
关注我们
  • 官方微信公众号
  • 扫码下载官方APP

X3.4 Licensed© 2001-2013 蓝光高清网 烧友之家APP |网站地图