游客您好
第三方账号登陆
  • 点击联系客服

    在线时间:9:00-18:00

    客服QQ

    1371333023

    电子邮件

    lanniao@1080pro.net
  • 烧友之家APP

    随时掌握烧友资讯

  • 扫描二维码

    关注微信公众号

推荐阅读
蓝鸟
未知星球 | 未知职业
  • 关注0
  • 粉丝2
  • 帖子94112
精选帖子
开启左侧

招魂3 4k The.Conjuring.The.Devil.Made.Me.Do.It.2021.2160p.HMAX.WEB-DL.x265.10bit.HDR.DDP5.1.Atmos-4k杜比视界电影下载—14.59 GB

[复制链接]
蓝鸟 发表于 2021-6-7 10:43:09 | 显示全部楼层 |阅读模式 打印 上一主题 下一主题
招魂3
上映时间:2021年
类型:惊悚 恐怖 悬疑 
地区:美国 
导演:迈克尔·查维斯
主演:维拉·法米加 / 帕特里克·威尔森 / 朱利安·希威德 / 山农·库克 / 欧根妮·邦杜兰特
画质标准:4K HDR  封装音轨:Dolby TrueHD 5.1 
豆瓣评分:6.7分

加入蓝光高清网,轻松下载最新4k资源

您需要 登录 才可以下载或查看,没有帐号?立即注册

x
简       介/ J- p, ?& j# @5 z: ^: d: D
6 p6 ?: r0 |+ c! W0 D- q/ f. V7 C" T
4 F. f" `( W- H; `6 \. C4 }
  这是现实生活中超自然现象调查员埃德·沃伦和洛林·沃伦的档案中最耸人听闻的案件之一:一名小男孩被谋杀,而嫌疑人在美国史上首次声称恶魔附身作为辩护。& Y$ @+ h- j4 G
% V0 Y6 }$ U& T- y! W/ Z7 g9 r. }

& ?% a2 G. T% a) N" e' F影片参数8 o; }9 x: q! i2 S4 Q5 ]- `
招魂3:鬼使神差 / 诡屋惊凶实录3:魔旨(港) / 厉阴宅3:是恶魔逼我的(台) / The Conjuring 3/招魂3 4k The.Conjuring.The.Devil.Made.Me.Do.It.2021.2160p.HMAX.WEB-DL.x265.10bit.HDR.DDP5.1.Atmos-4k杜比视界电影信息1 n5 i- @# g3 ?; E
Video
7 Y$ @0 [) a( q: m' W, f5 S' }ID : 1
  F5 J0 o$ h1 |0 n+ CFormat : HEVC# i0 Z" p) b2 W3 c2 s' C& U  w
Format/Info : High Efficiency Video Coding3 {- Y9 D, B  w; a2 R, i% G
Format profile : Main 10@L5@Main; h7 e" \6 Q1 B0 K5 q9 u
HDR format : SMPTE ST 2086, HDR10 compatible( k1 @0 t" q6 Z% [
Codec ID : V_MPEGH/ISO/HEVC6 k5 y+ I" w' T% J6 R3 c/ g
Duration : 1 h 51 min
' X: r) ?  ?  xBit rate : 17.9 Mb/s; [. X2 _; h, o/ n* K9 @5 z6 x
Width : 3 840 pixels1 \% G: A# w- }, S
Height : 2 160 pixels. R/ q/ [% O& z1 X8 J1 v7 j7 q
Display aspect ratio : 16:9
' o) [8 i% e# y+ W$ N& iFrame rate mode : Constant
9 ^# R+ ^, H: z) oFrame rate : 23.976 (24000/1001) FPS
5 C& i: k" d2 \Color space : YUV3 r) I: v, u, Q2 O: ~
Chroma subsampling : 4:2:0
  C: q$ X( `: Q* \9 J, [' ABit depth : 10 bits
; g5 d9 X- w; g5 p2 P3 D" Z! JBits/(Pixel*Frame) : 0.090/ J4 u2 ~# c; C) a# N8 n" V" ^
Stream size : 14.0 GiB (96%)
$ B  m& M3 ^& `6 BWriting library : x265 3.4hy:[Linux][GCC 7.5.0][64 bit] 10bit3 o% `9 ~; U5 s+ L2 E
Encoding settings : cpuid=1111039 / frame-threads=1 / wpp / no-pmode / no-pme / no-psnr / no-ssim / log-level=2 / input-csp=1 / input-res=3840x2160 / interlace=0 / total-frames=0 / level-idc=0 / high-tier=1 / uhd-bd=0 / ref=4 / no-allow-non-conformance / repeat-headers / annexb / no-aud / no-hrd / info / hash=0 / no-temporal-layers / no-open-gop / min-keyint=96 / keyint=96 / gop-lookahead=0 / bframes=3 / b-adapt=2 / b-pyramid / bframe-bias=0 / rc-lookahead=25 / lookahead-slices=4 / scenecut=40 / hist-scenecut=0 / radl=0 / no-splice / no-intra-refresh / ctu=64 / min-cu-size=8 / rect / no-amp / max-tu-size=32 / tu-inter-depth=1 / tu-intra-depth=1 / limit-tu=0 / rdoq-level=2 / dynamic-rd=0.00 / no-ssim-rd / signhide / no-tskip / nr-intra=0 / nr-inter=0 / no-constrained-intra / strong-intra-smoothing / max-merge=3 / limit-refs=3 / limit-modes / me=3 / subme=3 / merange=57 / temporal-mvp / no-frame-dup / no-hme / weightp / no-weightb / no-analyze-src-pics / deblock=0:0 / sao / no-sao-non-deblock / rd=4 / selective-sao=4 / no-early-skip / rskip / no-fast-intra / no-tskip-fast / no-cu-lossless / no-b-intra / no-splitrd-skip / rdpenalty=0 / psy-rd=2.00 / psy-rdoq=1.00 / no-rd-refine / no-lossless / cbqpoffs=0 / crqpoffs=0 / rc=abr / bitrate=18000 / qcomp=0.60 / qpstep=4 / stats-write=0 / stats-read=2 / cplxblur=20.0 / qblur=0.5 / vbv-maxrate=24500 / vbv-bufsize=24500 / vbv-init=0.6 / vbv-end=0.6 / vbv-end-fr-adj=0.0 / ipratio=1.40 / pbratio=1.30 / aq-mode=2 / aq-strength=1.00 / cutree / zone-count=0 / no-strict-cbr / qg-size=32 / no-rc-grain / qpmax=69 / qpmin=0 / no-const-vbv / sar=0 / overscan=0 / videoformat=5 / range=0 / colorprim=9 / transfer=16 / colormatrix=9 / chromaloc=0 / display-window=0 / master-display=G(13250,34500)B(7500,3000)R(34000,16000)WP(15635,16450)L(40000000,50) / cll=514,91 / min-luma=0 / max-luma=1023 / log2-max-poc-lsb=8 / vui-timing-info / vui-hrd-info / no-concatenation / slices=1 / no-opt-qp-pps / no-opt-ref-list-length-pps / no-multi-pass-opt-rps / scenecut-bias=0.05 / hist-threshold=0.01 / no-opt-cu-delta-qp / no-aq-motion / hdr10 / no-hdr10-opt / no-dhdr10-opt / no-idr-recovery-sei / analysis-reuse-level=0 / analysis-save-reuse-level=0 / analysis-load-reuse-level=0 / scale-factor=0 / refine-intra=0 / refine-inter=0 / refine-mv=1 / refine-ctu-distortion=0 / no-limit-sao / ctu-info=0 / no-lowpass-dct / refine-analysis-type=0 / copy-pic=1 / max-ausize-factor=1.0 / no-dynamic-refine / no-single-sei / no-hevc-aq / no-svt / no-field / qp-adaptation-range=1.00 / no-scenecut-aware-qpconformance-window-offsets / right=0 / bottom=0 / decoder-max-rate=01 x2 s6 w9 l( ]! e' H* X
Default : Yes
7 Y3 i: a( [, N' iForced : No
6 ?1 m" q; i. |; z) Z' vColor range : Limited
" ^+ p; H4 K$ ~4 U! [4 ^* w7 g, \Color primaries : BT.2020
& _" W( h& [  M  ]+ hTransfer characteristics : PQ$ C0 ]  G( c% y7 G1 {$ w
Matrix coefficients : BT.2020 non-constant
/ z  R4 E7 m8 F, q" I: wMastering display color primaries : Display P37 F+ ?4 g( ^  _4 W( c; Q7 ?
Mastering display luminance : min: 0.0050 cd/m2, max: 4000 cd/m2
  o* l% x" e) |+ ]& [' u: v7 CMaximum Content Light Level : 514 cd/m2
) N8 f+ a% B: r5 c4 v4 V: YMaximum Frame-Average Light Level : 91 cd/m2* k% a! b: y5 Q( k7 |. X& |+ h; r
( m& x2 \/ }; w. W& g3 n+ x
8 g( k/ r- B2 p) u1 F* {7 a
Audio0 I0 k" b, f' T$ F5 H% M' X; s/ O( _
ID : 2) I% c  s  L0 f/ |: S1 c
Format : E-AC-3 JOC6 V# C. c6 y' X( W
Format/Info : Enhanced AC-3 with Joint Object Coding
1 t: C; b$ l. t! dCommercial name : Dolby Digital Plus with Dolby Atmos$ b1 w4 |, p9 s' P
Codec ID : A_EAC3( y. j- d6 n2 H5 r6 n. W& e# d3 `
Duration : 1 h 51 min4 Y6 h3 K8 \  Q9 z2 _: b2 v# f
Bit rate mode : Constant+ m* k* @' g% d, v6 z
Bit rate : 768 kb/s
! f5 f3 S* R. f4 l' |Channel(s) : 6 channels# Q4 e0 G, v/ L% z
Channel layout : L R C LFE Ls Rs- Z+ G' T+ B" D* U2 V
Sampling rate : 48.0 kHz. L( ?6 U5 x2 g! g9 u6 g8 k
Frame rate : 31.250 FPS (1536 SPF)
9 X4 ~# \2 V5 FCompression mode : Lossy3 Z1 v" f3 B' Z' C0 Z+ f
Stream size : 614 MiB (4%)
  E# M0 ^$ |. p; ]* H+ l6 J7 |8 o* D) jLanguage : English
8 T9 k4 m( p, |Service kind : Complete Main/ T' O% ?- o/ g1 f
Default : Yes+ _- O1 n3 C: H9 z
Forced : No
* u: m6 X3 @9 X9 M9 ?# j+ W5 UComplexity index : 16
$ ], x) ^% ~( H+ f4 ?) B6 x) H9 TNumber of dynamic objects : 154 a8 H+ j5 T1 x8 A) d7 u0 I! p0 E
Bed channel count : 1 channel
9 b2 ?+ m8 L. z5 g0 \, {Bed channel configuration : LFE
' F1 @: F4 q2 S5 [5 D7 @
2 }) N8 i& w; G0 Y* [3 s+ Y
蓝光高清网提示您  点击下方附件名称  马上开始下载
( I4 [& ^) k/ N* t
% M: [! r) d0 o* N+ w/ V
1 W+ w# \) X& Q+ r7 r* O) K4 R
多版本下载时请注意区分% f8 ?, b0 |5 }9 Y7 y
# t) e# b" G4 r- s5 F2 r
# b9 E( o) O+ q- S, i0 P. l
招魂3:鬼使神差 / 诡屋惊凶实录3:魔旨(港) / 厉阴宅3:是恶魔逼我的(台) / The Conjuring 3/招魂3 4k The.Conjuring.The.Devil.Made.Me.Do.It.2021.2160p.HMAX.WEB-DL.x265.10bit.HDR.DDP5.1.Atmos-4k电影下载
* Z0 w! f4 w! U& L% s# {8 J& _: o
. X% |$ J$ |8 o" W招魂3 4k The.Conjuring.The.Devil.Made.Me.Do.It.2021.2160p.HMAX.WEB-DL.x265.10bit.HDR.DDP5.1.Atmos【14.59GB】# l1 r  @* J- M: n  k- Q
招魂3 4k The.Conjuring.The.Devil.Made.Me.Do.It.2021.2160p.HMAX.WEB-DL.x26.torrent (文件大小:73.7 KB)
加入蓝光高清网VIP会员  无限制下载本站所有资源---点这里

资源下载、资源播放、字幕使用、无法下载等常见问题---点这里
回复

使用道具 举报

精彩评论3

曲寨爱玛电动车手机认证 发表于 2021-6-8 08:54:56 | 显示全部楼层
谢谢分享
' Q+ U" x. E# v. m
回复

使用道具 举报

曲寨爱玛电动车手机认证 发表于 2021-6-8 08:57:39 | 显示全部楼层
谢谢分享
回复

使用道具 举报

ggang1 发表于 2021-6-8 09:15:28 | 显示全部楼层
发贴辛苦,谢谢分享
回复 支持 反对

使用道具 举报

您需要登录后才可以回帖 登录 | 立即注册

本版积分规则

烧友之家(蓝光高清网)本站内容部分由用户自主分享和转载自互联网,转载目的在于传递更多信息,并不代表本网赞同其观点和对其真实性负责。 如有侵权、违反国家法律政策行为,请联系我们,我们会第一时间及时清除和处理!
蓝光高清网 综合资讯平台
关注我们
  • 官方微信公众号
  • 扫码下载官方APP

X3.4 Licensed© 2001-2013 蓝光高清网 烧友之家APP |网站地图