[剧情] 沙普的任务 Sharpes.Mission.1996.1080p.BluRay.x264.DD5.1-FGT 7.23GB

[复制链接]
蓝鸟VIP会员 永久VIP 发表于 2019-8-22 00:57:33 | 显示全部楼层 |阅读模式 打印 上一主题 下一主题

马上注册,轻松下载,海量资源,让你轻松玩转社区。

您需要 登录 才可以下载或查看,没有帐号?立即注册

x

?
◎译  名 沙普的任务
◎片  名 Sharpe s Mission (TV)
◎国  家 UK
◎语  言 English
◎上映日期 1996-05-15
◎IMDb评分  8.0/10 from 1,252 users
◎IMDb链接  http://www.imdb.com/title/tt0117620/
◎豆瓣评分 0/10 from 5 users
◎豆瓣链接 http://movie.douban.com/subject/1997969/
◎导  演 Tom Clegg
◎主  演 Sean Bean
      Daragh O Malley
      Abigail Cruttenden
◎简  介
  France 1813
  Col. Cresson and Gen. Calvet plan to capture Wellington s intelligence chief, Maj. Gen. Ross. Gypsies are camping with the British, their women are causing a stir among the soldiers and Sharpe has settled into married life.  Jane, however, is bored and looking to the future.  She wonders how Sharpe will take to the social life back in England.
  Col. Brand also arrives in the camp, he operates behind enemy lines and plans to destroy Calvet s powder supply.  Sharpe is to act as his back up. They also need the services of explosives expert, Maj. Septimus Pyecroft.  A war correspondant and poet, called Shelligton, has also arrived and becomes enamoured with Jane.
  When Ross and Sharpe meet Pyecroft, he has a gypsy girl with him who was the only survivor from an attack on her family.  In the camp, she recognises her family s horses among those belonging to Maj. Brand s men.  Another gypsy girl, sets herself at Harris, but when he goes to her tent in the evening, he discovers her and her family dead.  When he reports the murder, he finds himself chief suspect and is confined to camp.  Sharpe asks him to watch over Jane while he is away.
  Shellington accompanies Sharpe, but tires of war and is escorted back to camp.  The murderers are uncovered and rounded up, and Sharpe also discovers there is a French spy in the camp.
Video
ID                                       : 1
Format                                   : AVC
Format/Info                              : Advanced Video Codec
Format profile                           : [email protected]
Format settings, CABAC                   : Yes
Format settings, ReFrames                : 5 frames
Codec ID                                 : V_MPEG4/ISO/AVC
Duration                                 : 1h 41mn
Bit rate                                 : 9 579 Kbps
Width                                    : 1 920 pixels
Height                                   : 1 080 pixels
Display aspect ratio                     : 16:9
Frame rate mode                          : Constant
Frame rate                               : 25.000 fps
Color space                              : YUV
Chroma subsampling                       : 4:2:0
Bit depth                                : 8 bits
Scan type                                : Progressive
Bits/(Pixel*Frame)                       : 0.185
Stream size                              : 6.63 GiB (92%)
Writing library                          : x264 core 130 r2273 b3065e6
Encoding settings                        : cabac=1 / ref=5 / deblock=1:-3:-3 / analyse=0x3:0x133 / me=umh / subme=11 / psy=1 / psy_rd=1.00:0.10 / mixed_ref=1 / me_range=32 / chroma_me=1 / trellis=2 / 8x8dct=1 / cqm=0 / deadzone=21,11 / fast_pskip=1 / chroma_qp_offset=-3 / threads=6 / lookahead_threads=1 / sliced_threads=0 / nr=0 / decimate=1 / interlaced=0 / bluray_compat=0 / constrained_intra=0 / bframes=8 / b_pyramid=2 / b_adapt=2 / b_bias=0 / direct=3 / weightb=1 / open_gop=0 / weightp=2 / keyint=250 / keyint_min=25 / scenecut=40 / intra_refresh=0 / rc_lookahead=60 / rc=2pass / mbtree=1 / bitrate=9579 / ratetol=1.0 / qcomp=0.60 / qpmin=0 / qpmax=69 / qpstep=4 / cplxblur=20.0 / qblur=0.5 / ip_ratio=1.40 / aq=1:1.00
Language                                 : English
Default                                  : Yes
Forced                                   : No
Audio
ID                                       : 2
Format                                   : AC-3
Format/Info                              : Audio Coding 3
Mode extension                           : CM (complete main)
Format settings, Endianness              : Big
Codec ID                                 : A_AC3
Duration                                 : 1h 41mn
Bit rate mode                            : Constant
Bit rate                                 : 640 Kbps
Channel(s)                               : 6 channels
Channel positions                        : Front: L C R, Side: L R, LFE
Sampling rate                            : 48.0 KHz
Bit depth                                : 16 bits
Compression mode                         : Lossy
Stream size                              : 463 MiB (6%)
Language                                 : English
Default                                  : Yes
Forced                                   : No
Text
ID                                       : 3
Format                                   : UTF-8
Codec ID                                 : S_TEXT/UTF8
Codec ID/Info                            : UTF-8 Plain Text
Language                                 : English
Default                                  : No
Forced                                   : No
Menu
00:00:00.000                             : en:Chapter 01
00:00:54.100                             : en:Chapter 02
00:09:32.000                             : en:Chapter 03
00:14:55.640                             : en:Chapter 04
00:22:01.400                             : en:Chapter 05
00:30:34.400                             : en:Chapter 06
00:37:20.760                             : en:Chapter 07
00:45:30.680                             : en:Chapter 08
00:53:49.440                             : en:Chapter 09
00:59:05.280                             : en:Chapter 10
01:08:47.440                             : en:Chapter 11
01:15:54.440                             : en:Chapter 12
01:23:38.360                             : en:Chapter 13
01:31:50.280                             : en:Chapter 14
01:39:56.140                             : en:Chapter 15

精彩剧照


                                       

蓝光高清网提示您 点击下方附件名称 马上开始下载



温馨提示:
本站资源优先使用迅雷下载,迅雷会员下载,速度基本可以跑满宽带
如果遇到无资源或者版权问题无法下载,推荐使用115网盘离线下载(点击查看115网盘离线下载教程


  • 该资源需要您回复以后 刷新网页进行下载操作

  • 1、Sharpes.Mission.1996.1080p.BluRay.x264.DD5.1-FGT.torrent 73KB 已下载 0 次

加入蓝光高清网VIP会员  无限制下载本站所有资源---点此加入

资源下载、资源播放、字幕使用、无法下载等常见问题---点这里

回复

使用道具 举报

懒得打字嘛,点击右侧快捷回复
高级模式
B Color Image Link Quote Code Smilies 上传

本版积分规则

关注0

粉丝0

帖子69429

发布主题
最新电影 论坛
广告位
联系我们
点击这里联系客服

服务时间:
周一到周日8:00-23:30

  • 打开微信扫一扫
    关注公众号

  • 手机QQ扫一扫
    添加客服

Archiver手机版蓝光高清网 ( 渝ICP备18006373号-2 )|网站地图

Powered by Discuz! X3.4  © 2001-2013 Comsenz Inc.