游客您好
第三方账号登陆
  • 点击联系客服

    在线时间:9:00-18:00

    客服QQ

    1371333023

    电子邮件

    lanniao@1080pro.net
  • 烧友之家APP

    随时掌握烧友资讯

  • 扫描二维码

    关注微信公众号

推荐阅读
蓝鸟
未知星球 | 未知职业
  • 关注0
  • 粉丝2
  • 帖子94112
精选帖子
开启左侧

[其他电视剧] 性福演算法 Sexify 2021 . s01 1080p.acc.2.0 -10.2GB

[复制链接]
蓝鸟 发表于 2021-6-8 09:22:32 | 显示全部楼层 |阅读模式 打印 上一主题 下一主题
性福演算法

状态:第一季(完结)
上映时间:2021-04-28
类型:喜剧 剧情 
地区:其他
导演:彼得亚雷·多玛列夫斯基 / 卡琳娜·阿拉布鲁琴斯卡
主演:Aleksandra Skraba / 玛丽亚·索博辛斯卡 / 桑德拉·德拉兹马尔斯卡 / Piotr Pacek / Kamil Wodka
画质标准:超清(1920x1080) 封装音轨:MP4 音轨编码:LPCM
豆瓣评分:7.2分

加入蓝光高清网,轻松下载最新4k资源

您需要 登录 才可以下载或查看,没有帐号?立即注册

x
本帖最后由 蓝鸟 于 2021-6-8 09:23 编辑

影片参数
General
Format                         : MPEG-4
Format profile                 : Base Media
Codec ID                       : isom (isom/iso2/avc1/mp41)
File size                      : 888 MiB
Duration                       : 38 min 50 s
Overall bit rate               : 3 195 kb/s
Writing application            : Lavf58.45.100

Video
ID                             : 1
Format                         : AVC
Format/Info                    : Advanced Video Codec
Format profile                 : High@L4
Format settings                : CABAC / 4 Ref Frames
Format settings, CABAC         : Yes
Format settings, Reference fra : 4 frames
Codec ID                       : avc1
Codec ID/Info                  : Advanced Video Coding
Duration                       : 38 min 50 s
Bit rate                       : 3 000 kb/s
Width                          : 1 920 pixels
Height                         : 1 080 pixels
Display aspect ratio           : 16:9
Frame rate mode                : Constant
Frame rate                     : 24.000 FPS
Color space                    : YUV
Chroma subsampling             : 4:2:0
Bit depth                      : 8 bits
Scan type                      : Progressive
Bits/(Pixel*Frame)             : 0.060
Stream size                    : 833 MiB (94%)
Writing library                : x264 core 160 r3011M cde9a93
Encoding settings              : cabac=1 / ref=3 / deblock=1:0:0 / analyse=0x3:0x113 / me=hex / subme=7 / psy=1 / psy_rd=1.00:0.00 / mixed_ref=1 / me_range=16 / chroma_me=1 / trellis=1 / 8x8dct=1 / cqm=0 / deadzone=21,11 / fast_pskip=1 / chroma_qp_offset=-2 / threads=6 / lookahead_threads=1 / sliced_threads=0 / nr=0 / decimate=1 / interlaced=0 / bluray_compat=0 / constrained_intra=0 / bframes=3 / b_pyramid=2 / b_adapt=1 / b_bias=0 / direct=1 / weightb=1 / open_gop=0 / weightp=2 / keyint=250 / keyint_min=24 / scenecut=40 / intra_refresh=0 / rc_lookahead=40 / rc=2pass / mbtree=1 / bitrate=3000 / ratetol=1.0 / qcomp=0.60 / qpmin=0 / qpmax=69 / qpstep=4 / cplxblur=20.0 / qblur=0.5 / ip_ratio=1.40 / aq=1:1.00
Codec configuration box        : avcC

Audio
ID                             : 2
Format                         : AAC LC
Format/Info                    : Advanced Audio Codec Low Complexity
Codec ID                       : mp4a-40-2
Duration                       : 38 min 50 s
Duration_LastFrame             : -3 ms
Bit rate mode                  : Constant
Bit rate                       : 192 kb/s
Channel(s)                     : 2 channels
Channel layout                 : L R
Sampling rate                  : 48.0 kHz
Frame rate                     : 46.875 FPS (1024 SPF)
Compression mode               : Lossy
Stream size                    : 53.3 MiB (6%)
Default                        : Yes
Alternate group                : 1



X福演算法.S01E05.1080P.蓝光高清网www.1080pro.net.mp4_20210608_091833.224.jpg X福演算法.S01E05.1080P.蓝光高清网www.1080pro.net.mp4_20210608_091855.539.jpg


蓝光高清网提示您  点击下方附件名称即可开始下载

百度网盘 磁力链接下载
xing福演算法.txt (文件大小:226 Bytes)
加入蓝光高清网VIP会员  无限制下载本站所有资源---点这里

资源下载、资源播放、字幕使用、无法下载等常见问题---点这里
回复

使用道具 举报

精彩评论1

milanboss手机认证 发表于 2021-6-9 10:28:44 | 显示全部楼层

谢谢楼主的分享!
回复 支持 反对

使用道具 举报

您需要登录后才可以回帖 登录 | 立即注册

本版积分规则

烧友之家(蓝光高清网)本站内容部分由用户自主分享和转载自互联网,转载目的在于传递更多信息,并不代表本网赞同其观点和对其真实性负责。 如有侵权、违反国家法律政策行为,请联系我们,我们会第一时间及时清除和处理!
蓝光高清网 综合资讯平台
关注我们
  • 官方微信公众号
  • 扫码下载官方APP

X3.4 Licensed© 2001-2013 蓝光高清网 烧友之家APP |网站地图