游客您好
第三方账号登陆
  • 点击联系客服

    在线时间:9:00-18:00

    客服QQ

    1371333023

    电子邮件

    lanniao@1080pro.net
  • 烧友之家APP

    随时掌握烧友资讯

  • 扫描二维码

    关注微信公众号

推荐阅读
蓝鸟
未知星球 | 未知职业
  • 关注0
  • 粉丝2
  • 帖子94112
精选帖子
开启左侧

朋友 4k Our.Friend.2019.2160p.AMZN.WEB-DL.x265.10bit.HDR10Plus.DTS-HD.MA.5.1-4k电影下载—16.02 GB

[复制链接]
蓝鸟 发表于 2021-6-8 09:36:55 | 显示全部楼层 |阅读模式 打印 上一主题 下一主题
朋友
上映时间:2019年
类型:剧情 
地区:美国 
导演:加芙列拉·考珀斯维特
主演:达科塔·约翰逊 / 杰森·席格尔 / 卡西·阿弗莱克 / 格温多兰·克里斯蒂 / 切莉·琼斯
画质标准:4K HDR  封装音轨:DTS-HD.MA 5.1 
豆瓣评分:6.6分

加入蓝光高清网,轻松下载最新4k资源

您需要 登录 才可以下载或查看,没有帐号?立即注册

x
简       介$ n; N1 g4 d4 Z/ `

2 \% N6 [/ N6 g% A$ s. ^" }/ q
. E5 p& l. ?  g* K
  根据马修·蒂格为《时尚先生》杂志撰写的获得国家杂志大奖的文章改编,布拉德·英格尔斯比操刀该剧本。故事讲述在得知伴侣妮可(约翰逊饰)只有六个月的生命后,马修(阿弗莱克饰)意外地得到了他们最好朋友(席格尔饰)的支持。他搬到了他们家,暂时搁置了自己的生活。6 \8 M- z4 ^! @' |1 I: K4 n
! Z1 t( s2 o7 ~0 o8 k" g

5 [& b2 R( x# @: b: b! J( A8 V7 R" {影片参数: }8 O/ @& T" ?' g$ _! X. w
悲伤路上还有友你(港) / 友你真好(台) / 我们的朋友 / The Friend/朋友4k Our.Friend.2019.2160p.AMZN.WEB-DL.x265.10bit.HDR10Plus.DTS-HD.MA.5.1-4k电影信息
- C7 O0 S( u! T4 g' h) }Video9 Z0 l. k! E1 H2 @* g
ID : 1% n- y/ m9 H( P1 r/ i" `
Format : HEVC
( A) X0 I: I$ d, V& C' t- L2 wFormat/Info : High Efficiency Video Coding
+ }3 [' H, l1 F, o. e9 f( KFormat profile : Main 10@L5@Main. t4 [- T5 a) ^/ E, K4 F4 b; m
HDR format : SMPTE ST 2094 App 4, Version 1, HDR10+ Profile B compatible
" ~( P1 `3 v! M* \* K# G0 `! J/ QCodec ID : V_MPEGH/ISO/HEVC& i* b( Q9 [& n; e, r  X7 C
Duration : 2 h 5 min
! n* ?( W9 _: ^% Q$ QBit rate : 14.5 Mb/s  u2 \1 P5 c* [8 r
Width : 3 840 pixels
# O4 j0 Z( a5 }: ^3 o% ?Height : 2 080 pixels
  {" {4 ]3 [. `! A0 }1 rDisplay aspect ratio : 1.85:1/ F7 S2 S( V2 z# W
Frame rate mode : Constant
' u8 j5 G0 m" v2 p$ uFrame rate : 23.976 (24000/1001) FPS( j2 b, n9 u8 u  r3 R+ y
Color space : YUV9 M5 T: x: h- l+ m0 z
Chroma subsampling : 4:2:0
$ y+ A* {4 `/ D% pBit depth : 10 bits* o5 S4 q) ^8 d- d
Bits/(Pixel*Frame) : 0.076& x0 d& _" \$ \! x9 F
Stream size : 12.8 GiB (80%)" \3 C; I" o9 h( n8 Y
Language : English$ L, l& l, F- c
Default : Yes
; J" e4 B. |$ S9 pForced : No/ X+ ^; u2 @5 L+ D
Color range : Limited( A4 \7 g8 U8 u5 I! m/ s
Color primaries : BT.2020, W7 ~' u! f. f# w! b" ]
Transfer characteristics : PQ1 b' V- ]+ v- b' Y
Matrix coefficients : BT.2020 non-constant
3 l" {/ {- {9 S3 c  f9 t  k! _5 ]Mastering display color primaries : Display P3( W% n1 x9 h( T, P$ M$ s' {1 v
Mastering display luminance : min: 0.0001 cd/m2, max: 1000 cd/m2
! W0 m/ C- j5 G* l; ZMaximum Content Light Level : 1091 cd/m2# [3 R5 {% B, L3 I, H8 L
Maximum Frame-Average Light Level : 285 cd/m20 b0 s+ F( Z- f5 N! O
$ G! O7 n, z  |+ q. x

$ f% A& E' k3 ?8 f& P, j4 vAudio #15 u5 s$ k4 u2 X* S9 l: \' [
ID : 2
; k* f4 H. x0 Y" dFormat : DTS XLL$ c/ J! Z3 W6 ^! G* P; }
Format/Info : Digital Theater Systems
( _  f: r) ]* rCommercial name : DTS-HD Master Audio
$ s2 ]: D# [, k" ?Codec ID : A_DTS1 `) s' m5 \1 V" W4 g. c( _
Duration : 2 h 5 min. v1 V9 C0 T7 S$ A, k/ F
Bit rate mode : Variable" S% U3 E5 a, {; K6 `% Q
Bit rate : 3 046 kb/s! T/ h7 P0 \" ]
Channel(s) : 6 channels
4 i" ]2 Q! ~+ j! Q* q% W0 g# x; gChannel layout : C L R Ls Rs LFE
% P& n0 [5 W4 O' }. }$ ZSampling rate : 48.0 kHz
5 D. s% p! C) A' U& |( _" T, pFrame rate : 93.750 FPS (512 SPF)
6 k3 K+ }7 t& M) K9 G1 mBit depth : 24 bits
3 T: x6 s; p& Z% sCompression mode : Lossless! ]) g2 ?$ t# p) |
Delay relative to video : 6 s 0 ms3 Z  ^# b' }2 W% i  m5 _' i
Stream size : 2.68 GiB (17%)
- G( @- r: S- m9 M) _% fTitle : DTS-HD MA 5.1
) I" x: F( n# L+ T) \( n* }Language : English' g2 [( t- Z2 \% T  s1 \# I
Default : Yes- }  x5 e( h) q# F
Forced : No
! r6 k$ N, O$ r! l+ g5 g) H6 B4 ~( b( a4 m+ p/ F
8 [) w; b: i* \3 T3 a8 k0 e) X1 v" }; g
Audio #2* H7 z- M8 k6 h
ID : 3
: L( n1 D( t  U5 }5 b& o) oFormat : E-AC-3
4 D" M% `$ J& R! JFormat/Info : Enhanced AC-32 F0 g; z, i6 S2 k# L
Commercial name : Dolby Digital Plus7 {% {: y0 v' u  `
Codec ID : A_EAC33 x* p$ |+ d  C  N# H9 \6 z
Duration : 2 h 5 min
5 \* N5 l3 t; N7 zBit rate mode : Constant
! Z: q' d4 u# X& _: V) jBit rate : 640 kb/s
8 U# w  U  j* A- `) Q4 A2 h$ `Channel(s) : 6 channels: q  S/ ]; W' w$ M0 s: k
Channel layout : L R C LFE Ls Rs% [# Z3 u' q+ g
Sampling rate : 48.0 kHz
  H6 n) C( D" O- V: }$ `' jFrame rate : 31.250 FPS (1536 SPF)+ K3 A: t8 N0 G+ X0 ^0 S
Compression mode : Lossy9 @1 R& R+ s* N1 S
Stream size : 577 MiB (4%)
& r* }) _/ k# ~# V' M  Q( Z2 ^Title : DDP 5.1
, J9 b! k: X/ VLanguage : English5 s5 _6 f) k4 m5 ^  ~
Service kind : Complete Main
) `* n* a7 v1 {2 F- Z& {' ~  D; hDefault : No- z4 B3 h& z" Z' X* U" j4 z" ?
Forced : No
! J- F6 }' t5 ?  H

9 @3 M5 X' Z$ F1 r% s! s蓝光高清网提示您  点击下方附件名称即可开始下载3 g! w7 ]) d# Y& D( k. r6 V
9 C% H* E6 C3 ~. L

+ u  n+ R# I" z. D* \( N- n悲伤路上还有友你(港) / 友你真好(台) / 我们的朋友 / The Friend/朋友4k Our.Friend.2019.2160p.AMZN.WEB-DL.x265.10bit.HDR10Plus.DTS-HD.MA.5.1-4k电影下载
0 n5 {8 M. f! I: O( a' y' D! f( ^  T
朋友4k Our.Friend.2019.2160p.AMZN.WEB-DL.x265.10bit.HDR10Plus.DTS-HD.MA.5.1【16.02GB】
( f/ d6 l6 ~( {- O2 O7 p  V 朋友4k Our.Friend.2019.2160p.AMZN.WEB-DL.x265.10bit.HDR10Plus.DTS-HD.MA.5.torrent (文件大小:80.8 KB)
加入蓝光高清网VIP会员  无限制下载本站所有资源---点这里

资源下载、资源播放、字幕使用、无法下载等常见问题---点这里
回复

使用道具 举报

精彩评论1

ggang1 发表于 2021-6-9 11:50:35 | 显示全部楼层
分享愉快 谢谢楼主
回复 支持 反对

使用道具 举报

您需要登录后才可以回帖 登录 | 立即注册

本版积分规则

烧友之家(蓝光高清网)本站内容部分由用户自主分享和转载自互联网,转载目的在于传递更多信息,并不代表本网赞同其观点和对其真实性负责。 如有侵权、违反国家法律政策行为,请联系我们,我们会第一时间及时清除和处理!
蓝光高清网 综合资讯平台
关注我们
  • 官方微信公众号
  • 扫码下载官方APP

X3.4 Licensed© 2001-2013 蓝光高清网 烧友之家APP |网站地图