游客您好
第三方账号登陆
  • 点击联系客服

    在线时间:9:00-18:00

    客服QQ

    1371333023

    电子邮件

    lanniao@1080pro.net
  • 烧友之家APP

    随时掌握烧友资讯

  • 扫描二维码

    关注微信公众号

推荐阅读
蓝鸟
未知星球 | 未知职业
  • 关注0
  • 粉丝2
  • 帖子94112
精选帖子
开启左侧

地平线 4k Horizon.Line.2020.2160p.AMZN.WEB-DL.x265.10bit.HDR10Plus.DTS-HD.MA.5.1-4k电影下载—12.54 GB

[复制链接]
蓝鸟 发表于 2021-6-8 09:42:26 | 显示全部楼层 |阅读模式 打印 上一主题 下一主题
地平线
上映时间:2020年
类型:惊悚 灾难 
地区:美国 
导演:米凯尔·马奇曼
主演:亚历山大·德雷蒙 / 艾莉森·威廉姆斯 / 凯斯·大卫 / 珀尔·麦基 / 贾马恩·亨特
画质标准:4K HDR  封装音轨:DTS-HD.MA 5.1 
豆瓣评分:5.7分

加入蓝光高清网,轻松下载最新4k资源

您需要 登录 才可以下载或查看,没有帐号?立即注册

x
简       介
' Z/ p: `' r( F% O* ~+ y
# d0 Q" {7 m7 A4 D6 c; l: h/ {
: L7 H' k: _* `+ l6 t- \% v
  故事讲述一对情侣坐小飞机去岛屿上参加婚礼,在离开小岛时飞行员不幸突发心脏病,俩人得想办法活下来。) Q1 v4 \: {) Q. n% ?

5 d) N5 Q. P/ P$ x
2 c, l, V- o, \, L
影片参数
1 ^0 N, s* B  J/ J" S+ o0 y
空中谜航(台)/地平线4k  Horizon.Line.2020.2160p.AMZN.WEB-DL.x265.10bit.HDR10Plus.DTS-HD.MA.5.1-4k电影信息
5 E* w1 j* R' b6 {+ mVideo
7 x; Z/ R/ l$ m# X4 L7 oID : 1
2 r1 ?6 F7 E. w9 `0 h' ]8 I! {* FFormat : HEVC+ b7 g- W9 J+ m; o' r5 m' l1 F+ d
Format/Info : High Efficiency Video Coding
- ]/ A+ k" |! s8 ^5 a/ cFormat profile : Main 10@L5@Main$ H( ?. f; x8 ^4 z# t4 Z# ~
HDR format : SMPTE ST 2094 App 4, Version 1, HDR10+ Profile B compatible7 \* z/ T8 _: h: |/ ^& E$ h. q
Codec ID : V_MPEGH/ISO/HEVC1 c' d. C0 _, k" [
Duration : 1 h 31 min
$ D/ y& ?9 z* H6 ?Bit rate : 14.9 Mb/s
) C3 G1 \- C- O8 T  y9 ?: wWidth : 3 840 pixels* I' Q$ ?- F0 }) W
Height : 1 600 pixels0 k1 I, e0 m* r5 Y! m( Q
Display aspect ratio : 2.40:1- B7 d  q% r, N" }. e
Frame rate mode : Constant
, W; m' i! F. }) J4 t; T) |6 {Frame rate : 23.976 (24000/1001) FPS4 i1 ?7 S) ^+ j$ ]  d; I
Color space : YUV, x0 E3 \. z1 o+ d3 M. N" h9 }
Chroma subsampling : 4:2:04 `3 F  ^; z9 K7 ~9 u
Bit depth : 10 bits; P2 o. r* {6 }$ S8 l
Bits/(Pixel*Frame) : 0.101  ?( F) W1 p3 B8 Y) X5 l5 X/ s" s1 L
Stream size : 9.53 GiB (76%)7 u* D: s/ k, F6 S4 C5 ]
Default : Yes0 S8 V$ m9 C# h; Y% \3 c
Forced : No8 ^& A1 K4 T8 n4 t
Color range : Limited; o! M/ [; k8 L4 U$ E% ^. }: d) d
Color primaries : BT.20209 z6 [: ^! n0 u* l3 Q
Transfer characteristics : PQ& Q0 T+ d2 O8 q6 v
Matrix coefficients : BT.2020 non-constant' [- n+ G3 q8 d, u
Mastering display color primaries : Display P36 @' M( P$ M+ [( `# P, t" B
Mastering display luminance : min: 0.0001 cd/m2, max: 1000 cd/m2
' ^( Z9 h6 J& Z, |1 TMaximum Content Light Level : 788 cd/m2
) Q$ Z" ^2 r0 h( K- T. s2 q- gMaximum Frame-Average Light Level : 740 cd/m2
$ Y4 j) j) b# r& V. O8 \. J5 A$ \/ D8 I) s1 R
, F$ g8 c2 [" t2 Z
Audio #1
+ P! s1 G* o& r7 C6 a3 l1 _ID : 2
5 f( {9 d  m; n- y3 y8 Z% HID in the original source medium : 4352 (0x1100)
1 K2 z- t" l, `" k' a  qFormat : DTS XLL0 E& H3 D) H  m
Format/Info : Digital Theater Systems
; n" k! Q: v4 J3 w% xCommercial name : DTS-HD Master Audio5 s# N9 m! t( L0 E  O3 F+ y
Codec ID : A_DTS& h$ ^( G& h( O! a) Z5 b2 k
Duration : 1 h 31 min
& s2 x& C( H* [Bit rate mode : Variable
2 y, N; N; d, i! r. Q- i9 |Bit rate : 4 055 kb/s
1 @2 _% T: @5 g6 f4 y. z! E* J) f1 z8 iChannel(s) : 6 channels1 [, `8 r; h1 ~. l/ }/ V/ T
Channel layout : C L R Ls Rs LFE, }* X) x, l: c% s' G
Sampling rate : 48.0 kHz
2 h3 k) r  I$ mFrame rate : 93.750 FPS (512 SPF): u2 }' A( e5 a3 S, ~. h  i! T0 v9 G
Bit depth : 24 bits; {1 G2 z; X$ C2 a9 f
Compression mode : Lossless
3 a" r- o4 `9 h8 G0 x& K! u# rDelay relative to video : 5 ms
& N" B9 P8 o! D5 q) VStream size : 2.60 GiB (21%)7 P( N4 v$ E+ M
Title : DTS-HD MA 5.1
# O, _8 }& q" k% ?Language : English
- y" Y8 ~- ~: ?( ADefault : Yes
9 b7 s: l& v' |+ a& `& c8 JForced : No
; H! Y! e+ [- p* a3 }. eOriginal source medium : Blu-ray* T8 v& _, T2 M7 c" W
- d& ]9 U7 K8 g* d1 Y6 K5 }

- Q7 }& |% B( ^4 f% C1 O6 nAudio #2
9 r8 U6 X  d1 p8 S7 ?% L: SID : 36 O: E0 W8 [+ w5 t, Z$ }% W
Format : E-AC-3& k* r* I  K! I5 A! {8 x
Format/Info : Enhanced AC-32 G1 I/ r: W2 X0 ^
Commercial name : Dolby Digital Plus
! {$ ~9 ]  `+ V, a' a3 vCodec ID : A_EAC3  @* ?! u/ a" p/ V$ T' l3 k8 Q
Duration : 1 h 31 min
8 h( P5 |7 x) C) A9 ~; xBit rate mode : Constant
- W3 `# @. P  f* HBit rate : 640 kb/s& @# v( w3 E7 C6 P
Channel(s) : 6 channels
; `; E: b2 K' z8 u, ]4 @Channel layout : L R C LFE Ls Rs& @  J1 K1 r: p
Sampling rate : 48.0 kHz# u; M  r# w' m) w% W' k
Frame rate : 31.250 FPS (1536 SPF)$ `1 z  ]& V7 ]2 i5 K( e/ o6 F
Compression mode : Lossy  n: r# e3 @2 G& ^
Stream size : 420 MiB (3%)$ H, n( ?* p  M/ [% H
Title : DDP 5.1
: p7 T  E% P! R4 X; `* FLanguage : English
9 r5 c; h1 z# F& G8 G( RService kind : Complete Main
6 i: y' o& \" a4 NDefault : No
; \, \) E' g9 r/ @' \Forced : No

0 ]' L% O) i. z! V& n" K% U8 `- c4 M1 H
蓝光高清网提示您  点击下方附件名称即可开始下载
7 y7 X: e" J' m
% g' ]2 C, w2 b& O( t

" z0 _! t- i; e2 X9 O1 K5 c! w空中谜航(台)/地平线4k  Horizon.Line.2020.2160p.AMZN.WEB-DL.x265.10bit.HDR10Plus.DTS-HD.MA.5.1-4k电影下载4 l2 Z6 V( X0 t' S
3 I# B; B' z: _% W
地平线 4k  Horizon.Line.2020.2160p.AMZN.WEB-DL.x265.10bit.HDR10Plus.DTS-HD.MA.5.1【12.54GB】
- y8 y$ ]( a8 z5 X  K# Z 地平线4k Horizon.Line.2020.2160p.AMZN.WEB-DL.x265.10bit.HDR10Plus.DTS-HD..torrent (文件大小:63.39 KB)
加入蓝光高清网VIP会员  无限制下载本站所有资源---点这里

资源下载、资源播放、字幕使用、无法下载等常见问题---点这里
回复

使用道具 举报

您需要登录后才可以回帖 登录 | 立即注册

本版积分规则

烧友之家(蓝光高清网)本站内容部分由用户自主分享和转载自互联网,转载目的在于传递更多信息,并不代表本网赞同其观点和对其真实性负责。 如有侵权、违反国家法律政策行为,请联系我们,我们会第一时间及时清除和处理!
蓝光高清网 综合资讯平台
关注我们
  • 官方微信公众号
  • 扫码下载官方APP

X3.4 Licensed© 2001-2013 蓝光高清网 烧友之家APP |网站地图