游客您好
第三方账号登陆
  • 点击联系客服

    在线时间:9:00-18:00

    客服QQ

    1371333023

    电子邮件

    lanniao@1080pro.net
  • 烧友之家APP

    随时掌握烧友资讯

  • 扫描二维码

    关注微信公众号

推荐阅读
蓝鸟
未知星球 | 未知职业
  • 关注0
  • 粉丝2
  • 帖子94112
精选帖子
开启左侧

Maggie.Simpson.In.Playdate.With.Destiny.2020.HDR.2160p.WEB.H265-4k动画短片下载—595.42 MB

[复制链接]
蓝鸟 发表于 2021-6-9 22:05:57 | 显示全部楼层 |阅读模式 打印 上一主题 下一主题
Playdate with Destiny
上映时间:2020年
类型:动画 短片 
地区:美国 
导演:大卫·西尔弗曼
主演:克里斯·埃杰利
画质标准:4K HDR  封装音轨:Dolby TrueHD 5.1 Dolby Atmos 
豆瓣评分:7.2分

加入蓝光高清网,轻松下载最新4k资源

您需要 登录 才可以下载或查看,没有帐号?立即注册

x
简       介
+ v$ Q1 T# z# p! k
: ^6 O  t, u4 ^9 A& E( ~+ M

. M  d3 n2 T! S  _% R  Maggie and Marge are having a play-date at Springfield's finest toddler play park when Maggie becomes smitten with a little boy. It's love at first suck and Maggie dreams about seeing him again after a day full of make-believe romance.
( e' o& l, `( A1 d+ p% v; J$ z# I
# _3 f& b3 U( J. k# P1 K' N# C8 v
2 x# ^5 ]% z2 Y, l
影片参数
* R) f# b# L8 ?3 l
The Simpsons: Playdate with Destiny/Maggie.Simpson.In.Playdate.With.Destiny.2020.HDR.2160p.WEB.H265-4k动画短片信息
7 q& u9 T: k/ k1 K/ N4 dVideo
) r/ Q. E& \. }, X; m- k0 {ID : 1: k5 O7 I. |0 h
Format : HEVC; F0 a1 y0 E% R
Format/Info : High Efficiency Video Coding* t5 Y1 N7 O! }; |% x. Y+ v1 l
Format profile : Main 10@L5@High& s: n1 y& q+ u0 w/ c9 a# _1 `& C( N8 W
HDR format : SMPTE ST 2086, HDR10 compatible
  i$ b% |. O% y) o# [$ NCodec ID : V_MPEGH/ISO/HEVC
$ e' Y$ D. o4 q- V& I, {8 WDuration : 5 min 11 s  e' A* f3 w9 s$ r) _, J  B3 ]
Bit rate : 15.3 Mb/s
# d0 b* g  r/ M5 b6 O8 cWidth : 3 840 pixels! D2 R4 x" n( d8 s6 m7 C
Height : 2 160 pixels: N( F4 H0 G$ d9 M4 r6 u* \
Display aspect ratio : 16:9
. L9 ]/ T" d& y( H- {Frame rate mode : Constant
  E; t) M, X" O6 \/ xFrame rate : 23.976 (24000/1001) FPS
: s0 E! D% k* OColor space : YUV$ d$ H7 h8 U% k2 U7 \' L0 o( u9 b
Chroma subsampling : 4:2:05 y% a' i9 T" Q. U
Bit depth : 10 bits
/ `! T( e9 B7 W: B, T# U" vBits/(Pixel*Frame) : 0.0771 Z: g( }/ k: {
Stream size : 567 MiB (95%)
: ^- Q( p  i) d- WDefault : Yes
8 N* }, A$ K. T1 ~Forced : No& \8 l& h, l3 P9 v1 i
Color range : Limited
1 r1 r6 E! b: hColor primaries : BT.2020
3 z, t2 X, j& HTransfer characteristics : PQ; w! R/ g4 n$ ~8 f2 H2 n
Matrix coefficients : BT.2020 non-constant
* U9 q1 o" [; s* P& G8 u  vMastering display color primaries : BT.2020
8 f9 c5 t$ X& V. p8 l; ~Mastering display luminance : min: 0.0001 cd/m2, max: 1000 cd/m22 C5 q3 Q7 A. V6 v
Maximum Content Light Level : 954 cd/m2& }& J2 M5 X5 s
Maximum Frame-Average Light Level : 32 cd/m28 I' J/ m7 u% c! ?2 H! [$ m
0 W7 r# d0 o" h) ]3 B8 L3 y' Z9 v
: P9 {) b" J8 W- h% i
Audio" G4 @  ^. P  }
ID : 2+ P, {" `) a/ P* p' C: Z+ q* G
Format : E-AC-3 JOC! e( l1 i, D& h, u9 D7 G7 A
Format/Info : Enhanced AC-3 with Joint Object Coding4 L$ `  P* q" h: K
Commercial name : Dolby Digital Plus with Dolby Atmos% J3 l; G& C+ H1 l
Codec ID : A_EAC3
' ~3 t2 ?: N" K  N- p8 M% SDuration : 5 min 11 s
9 Q1 Y3 I5 H  o8 m' l% X2 u" BBit rate mode : Constant
2 p, O% T1 H. G/ t, ?7 _Bit rate : 768 kb/s
( U2 [3 T% B# @7 F5 k  I4 rChannel(s) : 6 channels0 s9 X; x! N1 k* i6 E" T& r
Channel layout : L R C LFE Ls Rs' o9 b# ], @0 A0 W- B0 g4 i
Sampling rate : 48.0 kHz
+ u- e, b# k( Q3 s1 w, j3 l, IFrame rate : 31.250 FPS (1536 SPF)
9 Z2 q9 ?. \5 ^* ~9 D4 ACompression mode : Lossy* U' _( W( r+ P2 G& |% r# z& w+ R
Stream size : 28.5 MiB (5%)
1 r+ P. Y; E7 pTitle : English0 o- N2 t9 F1 K% B" Z
Language : English9 |) g% E3 H' i! k9 I3 `# z+ f
Service kind : Complete Main
6 P$ K1 l! W0 _9 w# p  UDefault : Yes& q5 h- @) U4 P; \& I6 s7 H& P
Forced : No
, `& s: A5 T* m% |2 r  U# ^Complexity index : 16- j5 e2 D+ ]0 i3 F: c$ x
Number of dynamic objects : 15- ~( `; |+ v1 n9 y* m9 g; a
Bed channel count : 1 channel$ ~5 z  N- H$ H& D# [
Bed channel configuration : LFE
5 \" N, m9 t# e. V+ F
: Y, ?9 {6 m9 W4 N+ D6 A7 d& T; r
蓝光高清网提示你  点击下方附件名即可开始下载
3 K9 g1 v! c3 E& J7 h4 |
6 A, Y$ p% {* e+ o. R) j
( g0 y0 Q2 v) X3 @9 D  W. X
The Simpsons: Playdate with Destiny/Maggie.Simpson.In.Playdate.With.Destiny.2020.HDR.2160p.WEB.H265-4k动画短片下载
6 A7 `/ G) A$ o$ s  H
- {# `3 j& r5 c2 GMaggie.Simpson.In.Playdate.With.Destiny.2020.HDR.2160p.WEB.H265【595.42 MB】2 X8 v( h9 ^9 p4 U' j0 Q
Maggie.Simpson.In.Playdate.With.Destiny.2020.HDR.2160p.WEB.H265-ASCENDANCE.torrent (文件大小:12.38 KB)
加入蓝光高清网VIP会员  无限制下载本站所有资源---点这里

资源下载、资源播放、字幕使用、无法下载等常见问题---点这里
回复

使用道具 举报

精彩评论2

ggang1 发表于 2021-6-10 09:11:19 | 显示全部楼层
谢谢分享!看看
回复 支持 反对

使用道具 举报

yangyang手机认证 发表于 2021-6-10 12:55:02 | 显示全部楼层
谢谢分享!看看
回复 支持 反对

使用道具 举报

您需要登录后才可以回帖 登录 | 立即注册

本版积分规则

烧友之家(蓝光高清网)本站内容部分由用户自主分享和转载自互联网,转载目的在于传递更多信息,并不代表本网赞同其观点和对其真实性负责。 如有侵权、违反国家法律政策行为,请联系我们,我们会第一时间及时清除和处理!
蓝光高清网 综合资讯平台
关注我们
  • 官方微信公众号
  • 扫码下载官方APP

X3.4 Licensed© 2001-2013 蓝光高清网 烧友之家APP |网站地图