游客您好
第三方账号登陆
  • 点击联系客服

    在线时间:9:00-18:00

    客服QQ

    1371333023

    电子邮件

    lanniao@1080pro.net
  • 烧友之家APP

    随时掌握烧友资讯

  • 扫描二维码

    关注微信公众号

推荐阅读
蓝鸟
未知星球 | 未知职业
  • 关注0
  • 粉丝2
  • 帖子94112
精选帖子
开启左侧

无限 4k Infinite.2021.HDR.2160p.WEB.H265-4k电影下载—10.99 GB

[复制链接]
蓝鸟 发表于 2021-6-10 20:46:49 | 显示全部楼层 |阅读模式 打印 上一主题 下一主题
无限
上映时间:2021年
类型:惊悚 科幻 
地区:美国 
导演:安东尼·福奎阿
主演:马克·沃尔伯格 / 迪伦·奥布莱恩 / 杰森·曼楚克斯 / 鲁伯特·弗兰德 / 索菲·库克森
画质标准:4K HDR  封装音轨:LPCM 
豆瓣评分:6.1分

加入蓝光高清网,轻松下载最新4k资源

您需要 登录 才可以下载或查看,没有帐号?立即注册

x
本帖最后由 蓝鸟 于 2021-6-15 08:59 编辑 1 R2 |2 y: j. W+ g( f

0 C( X2 [) N2 p% F# K9 M简       介. N" J' U7 T/ D

4 f5 O& y* V& n9 P, H+ T

9 S9 e. i+ Z4 A2 q4 V4 G  改编自D. Eric Maikranz所著小说《转世文献》(The Rein carnationist Papers),聚焦一个被自己前两世的记忆缠绕的男子,引出一群几乎长生不死、几世纪来多次转生的人,被称为“无限/无穷之人”,他们的组织叫“Cognomina”。为了打败想毁灭地球的邪恶力量,他们必须依靠这个精神分裂的男子,而后者先要搞清楚:他常做的奇怪的梦都是前世的记忆。9 n* N1 h) S: C! Q' h) @; R
/ k0 D3 M2 b$ L1 r
) }+ {! z# _- b3 m- ~* U7 V/ r
影片参数" F7 _1 B5 o1 u9 a  L
无限轮回/无限4k Infinite.2021.HDR.2160p.WEB.H265-4k电影下载
3 v) Q! V8 l" V) h1 k5 oVideo& L6 z3 [0 J9 L, p! p
ID : 10 l" w0 ^3 s) x& \+ p% l
Format : HEVC
" f' ~% j- q4 i* kFormat/Info : High Efficiency Video Coding- Z1 e8 P/ J" Y3 E; n4 Q  t
Format profile : Main 10@L5@High
$ A) o7 h! P5 A1 @HDR format : SMPTE ST 2094 App 4, Version 1, HDR10+ Profile B compatible" J9 p" H6 C5 |8 x7 ^$ E
Codec ID : V_MPEGH/ISO/HEVC- x1 h$ P) m) @1 I0 `4 u, d
Duration : 1 h 46 min
7 I1 d( P2 g7 _6 {  vBit rate : 14.0 Mb/s
' k3 r+ ^9 Y& B, a; I/ g; d* v+ j4 wWidth : 3 840 pixels
# a, q! V* g7 Z* eHeight : 2 160 pixels
: x& F; G/ u5 K2 o/ d" VDisplay aspect ratio : 16:9& Z8 P: {5 {& Y, i) o0 u7 g: l
Frame rate mode : Constant
6 D1 A9 P# @0 U8 @/ AFrame rate : 23.976 (24000/1001) FPS
9 w) k6 g  @! C7 k- z* N0 QColor space : YUV7 H# N3 M5 C3 }1 H9 L
Chroma subsampling : 4:2:0 (Type 2)
# ^( ?& d/ v* {( lBit depth : 10 bits* R& u9 @% |( ^: ~) a$ h2 N
Bits/(Pixel*Frame) : 0.070
; |+ ?( X- J" Z  K% u$ sStream size : 10.4 GiB (95%)" Y+ z! @. ]/ \& \
Default : Yes
" ?6 D: d. w) w: A4 N# G+ I' G/ qForced : No
/ W5 X! i0 R; U1 x# z/ kColor range : Full9 N. J$ M$ q( v
Color primaries : BT.2020' _# g2 V2 R  M9 c9 J! z! C/ Q
Transfer characteristics : PQ3 v  F+ H; Y5 n% S
Matrix coefficients : BT.2020 non-constant; X% P/ u0 V7 R2 B6 H
Mastering display color primaries : Display P3& W$ `5 i& l# y
Mastering display luminance : min: 0.0001 cd/m2, max: 1000 cd/m28 }9 M4 @8 l* z( e) b
8 z" n' O8 A6 ]* A: |
( w. l6 V. L) m8 E4 f: Y
Audio
5 k4 G; u) X6 u) S/ W' F8 PID : 2
- v) I/ P3 n  W$ A* t% [5 h/ d; pFormat : AC-3
' G) h2 X$ |9 g) X7 A3 D1 Z: PFormat/Info : Audio Coding 37 @. c' s7 i) G6 _" Q  `! [
Commercial name : Dolby Digital- b+ W8 ~7 P0 t+ N7 n
Codec ID : A_AC3
1 G( T0 y3 g7 y, l: P7 BDuration : 1 h 46 min
0 x2 V) V, P1 k% hBit rate mode : Constant
; a1 m- y/ p7 N* ZBit rate : 384 kb/s2 E" Q# h' ]3 H! U$ r
Channel(s) : 6 channels: o/ s1 d% {4 q6 ~7 e
Channel layout : L R C LFE Ls Rs8 h; e  e/ X4 i- h& H, C
Sampling rate : 48.0 kHz
$ w8 l# L% N% x3 A2 h6 mFrame rate : 31.250 FPS (1536 SPF)1 P# Q& W/ s  O5 n* `* \5 O0 K
Compression mode : Lossy
& h. |: m$ Q: d! c( x) U6 dStream size : 292 MiB (3%)
. F" i& C7 B6 t$ [; vLanguage : English6 f; }3 ^4 @# d, c. D
Service kind : Complete Main
: L5 x5 K# o+ _3 v. c1 N. Y' c# }$ bDefault : Yes
" I8 J6 ~. q5 |& h- o( _/ `6 ZForced : No
3 X* X& B1 J) J( f: \
蓝光高清网提示您  点击下方附件名称  马上开始下载9 q% h+ w" B- A6 E/ t( {& _
0 J* E3 J. w, k
无限轮回/无限4k Infinite.2021.HDR.2160p.WEB.H265-4k电影下载9 d' T6 T' m3 [
0 R3 W8 H3 {6 G' x* [# G
无限4k Infinite.2021.HDR.2160p.WEB.H265【10.99GB】  Y- S: s7 L$ l3 y9 c: {7 q; @
无限4k Infinite.2021.HDR.2160p.WEB.H265-NAISU.torrent (文件大小:55.72 KB)
加入蓝光高清网VIP会员  无限制下载本站所有资源---点这里

资源下载、资源播放、字幕使用、无法下载等常见问题---点这里
回复

使用道具 举报

精彩评论8

ggang1 发表于 2021-6-11 10:32:21 | 显示全部楼层
感谢楼主分享资源
回复 支持 反对

使用道具 举报

liyun80000手机认证 发表于 2021-6-11 15:19:28 | 显示全部楼层
谢谢楼主分享
回复 支持 反对

使用道具 举报

hqs0907手机认证 发表于 2021-6-13 22:41:37 | 显示全部楼层
谢谢楼主分享
回复 支持 反对

使用道具 举报

hqs0907手机认证 发表于 2021-6-13 22:41:52 | 显示全部楼层
谢谢楼主分享
回复 支持 反对

使用道具 举报

aaaaab手机认证 发表于 2021-6-14 04:48:06 来自手机 | 显示全部楼层
hzhhzhzzzxsssssz
回复 支持 反对

使用道具 举报

zy5213344手机认证 发表于 2021-6-14 07:13:50 | 显示全部楼层

+ }8 b3 }4 j( N) @- g! B/ E谢谢楼主分享
回复 支持 反对

使用道具 举报

zy5213344手机认证 发表于 2021-6-14 07:14:01 | 显示全部楼层
2 t9 M. ~% D: g2 A& b- s. K
谢谢楼主分享
回复 支持 反对

使用道具 举报

StephenHitch手机认证 发表于 7 天前 | 显示全部楼层
感谢分享
回复

使用道具 举报

您需要登录后才可以回帖 登录 | 立即注册

本版积分规则

烧友之家(蓝光高清网)本站内容部分由用户自主分享和转载自互联网,转载目的在于传递更多信息,并不代表本网赞同其观点和对其真实性负责。 如有侵权、违反国家法律政策行为,请联系我们,我们会第一时间及时清除和处理!
蓝光高清网 综合资讯平台
关注我们
  • 官方微信公众号
  • 扫码下载官方APP

X3.4 Licensed© 2001-2013 蓝光高清网 烧友之家APP |网站地图