游客您好
第三方账号登陆
  • 点击联系客服

    在线时间:9:00-18:00

    客服QQ

    1371333023

    电子邮件

    lanniao@1080pro.net
  • 烧友之家APP

    随时掌握烧友资讯

  • 扫描二维码

    关注微信公众号

推荐阅读
蓝鸟
未知星球 | 未知职业
  • 关注0
  • 粉丝2
  • 帖子94112
精选帖子
开启左侧

身在高地 4k In.the.Heights.2021.2160p.HMAX.WEB-4k电影下载—18.61 GB

[复制链接]
蓝鸟 发表于 2021-6-10 20:50:32 | 显示全部楼层 |阅读模式 打印 上一主题 下一主题
身在高地
上映时间:2021年
类型:剧情 爱情 音乐 歌舞 
地区:美国 
导演:朱浩伟
主演:安东尼·拉莫斯 / 科里·霍金斯 / 梅丽莎·巴雷拉 / 欧嘉·梅雷迪斯 / 林-曼努尔·米兰达
画质标准:4K HDR  封装音轨:Dolby TrueHD 5.1 
豆瓣评分:6.2分

加入蓝光高清网,轻松下载最新4k资源

您需要 登录 才可以下载或查看,没有帐号?立即注册

x
简       介# U* |/ [" K# g4 N. j+ |

) s) l/ z1 w  Y, M& q$ S! _  [+ }

9 E! b6 w. U/ S% _9 n& [4 R  讲述在纽约的华盛顿高地,杂货店老板Usnavi在继承了祖母的财产后,将要关掉店铺回到家乡多米尼加共和国过退休生活,对此他百感交集,而拉美裔社区和那里居民的吸引力让他停下来思考。影片围绕Usnavi、一名大学生、一名出租车司机、一位美容院员工和一个渴望更好生活的老妇人展开,随着中产阶级化开始扎根,闷热夏天中,一场停电让个人危机达到前所未有的高度。. S8 i8 a% s# [8 P
% V. n, ]# u" j! \( q3 B+ m
  f% A2 y: _5 g% {9 n0 G; i/ }$ p5 ^8 [
影片参数
6 B* \( p( R1 s6 m, ^2 k5 o
活在上城 / 纽约高地(台) / 狂舞纽约(港)/身在高地4k In.the.Heights.2021.2160p.HMAX.WEB-4k电影信息
8 y$ w( x( F1 X7 F; HVideo. [' @& L, t9 J5 ?
ID : 17 t5 x! U; y2 h% `% t6 r$ e; m
Format : HEVC
2 o+ R7 N2 ^% ]7 E. AFormat/Info : High Efficiency Video Coding3 f( e  J2 z& |4 k6 k# e9 |
Format profile : Main 10@L5@Main, \8 g- {0 K! z) \( r6 G" j! O* @
HDR format : SMPTE ST 2086, HDR10 compatible. `; Z3 j2 @* L
Codec ID : V_MPEGH/ISO/HEVC0 ^8 V! t& ^3 }: U! L$ N* ~
Duration : 2 h 22 min
) j$ f- g+ J  q" A$ U7 vBit rate : 17.9 Mb/s
1 b/ l- `( N' c' C9 G1 aWidth : 3 840 pixels. `' d4 |$ |( T  P+ s. w: d
Height : 2 160 pixels
" v, {& i: ^1 u$ E$ UDisplay aspect ratio : 16:9. F3 t* P9 A5 c/ _7 o
Frame rate mode : Constant
( v3 i  B; ?& LFrame rate : 23.976 (24000/1001) FPS
) D% m3 @* ^/ [3 cColor space : YUV
' Z3 ~' A9 R( ?) FChroma subsampling : 4:2:08 H/ F8 K9 M% M
Bit depth : 10 bits1 z) }3 T7 f! K  K+ v
Bits/(Pixel*Frame) : 0.090
+ k4 \6 d+ J' f% f& c/ {; o* L/ AStream size : 17.8 GiB (96%)
3 ~/ Q4 S- s. K, e9 I& R, g1 MWriting library : x265 3.4hy:[Linux][GCC 7.5.0][64 bit] 10bit( o( t1 ]$ n. S7 x0 T+ L, ?
Encoding settings : cpuid=1111039 / frame-threads=1 / wpp / no-pmode / no-pme / no-psnr / no-ssim / log-level=2 / input-csp=1 / input-res=3840x2160 / interlace=0 / total-frames=0 / level-idc=0 / high-tier=1 / uhd-bd=0 / ref=4 / no-allow-non-conformance / repeat-headers / annexb / no-aud / no-hrd / info / hash=0 / no-temporal-layers / no-open-gop / min-keyint=96 / keyint=96 / gop-lookahead=0 / bframes=3 / b-adapt=2 / b-pyramid / bframe-bias=0 / rc-lookahead=25 / lookahead-slices=4 / scenecut=40 / hist-scenecut=0 / radl=0 / no-splice / no-intra-refresh / ctu=64 / min-cu-size=8 / rect / no-amp / max-tu-size=32 / tu-inter-depth=1 / tu-intra-depth=1 / limit-tu=0 / rdoq-level=2 / dynamic-rd=0.00 / no-ssim-rd / signhide / no-tskip / nr-intra=0 / nr-inter=0 / no-constrained-intra / strong-intra-smoothing / max-merge=3 / limit-refs=3 / limit-modes / me=3 / subme=3 / merange=57 / temporal-mvp / no-frame-dup / no-hme / weightp / no-weightb / no-analyze-src-pics / deblock=0:0 / sao / no-sao-non-deblock / rd=4 / selective-sao=4 / no-early-skip / rskip / no-fast-intra / no-tskip-fast / no-cu-lossless / no-b-intra / no-splitrd-skip / rdpenalty=0 / psy-rd=2.00 / psy-rdoq=1.00 / no-rd-refine / no-lossless / cbqpoffs=0 / crqpoffs=0 / rc=abr / bitrate=18000 / qcomp=0.60 / qpstep=4 / stats-write=0 / stats-read=2 / cplxblur=20.0 / qblur=0.5 / vbv-maxrate=24500 / vbv-bufsize=24500 / vbv-init=0.6 / vbv-end=0.6 / vbv-end-fr-adj=0.0 / ipratio=1.40 / pbratio=1.30 / aq-mode=2 / aq-strength=1.00 / cutree / zone-count=0 / no-strict-cbr / qg-size=32 / no-rc-grain / qpmax=69 / qpmin=0 / no-const-vbv / sar=0 / overscan=0 / videoformat=5 / range=0 / colorprim=9 / transfer=16 / colormatrix=9 / chromaloc=0 / display-window=0 / master-display=G(13250,34500)B(7500,3000)R(34000,16000)WP(15635,16450)L(10000000,1) / cll=721,227 / min-luma=0 / max-luma=1023 / log2-max-poc-lsb=8 / vui-timing-info / vui-hrd-info / no-concatenation / slices=1 / no-opt-qp-pps / no-opt-ref-list-length-pps / no-multi-pass-opt-rps / scenecut-bias=0.05 / hist-threshold=0.01 / no-opt-cu-delta-qp / no-aq-motion / hdr10 / no-hdr10-opt / no-dhdr10-opt / no-idr-recovery-sei / analysis-reuse-level=0 / analysis-save-reuse-level=0 / analysis-load-reuse-level=0 / scale-factor=0 / refine-intra=0 / refine-inter=0 / refine-mv=1 / refine-ctu-distortion=0 / no-limit-sao / ctu-info=0 / no-lowpass-dct / refine-analysis-type=0 / copy-pic=1 / max-ausize-factor=1.0 / no-dynamic-refine / no-single-sei / no-hevc-aq / no-svt / no-field / qp-adaptation-range=1.00 / no-scenecut-aware-qpconformance-window-offsets / right=0 / bottom=0 / decoder-max-rate=0
! ^8 i$ G3 R0 Q- FDefault : Yes- p' n" L' e- \1 Y0 [9 y1 s5 b
Forced : No/ y& S! w; H" w5 a0 @0 n/ h, q* i
Color range : Limited
2 Q3 L$ E  t* }5 t9 I/ Q) C; NColor primaries : BT.2020
2 d- _9 m" ]+ A% `/ ITransfer characteristics : PQ- Z1 |& X/ y9 R
Matrix coefficients : BT.2020 non-constant
) l6 v9 ]5 k9 M9 D: @% \Mastering display color primaries : Display P3
  u/ @/ ]3 _3 K# o/ Z! m8 R6 dMastering display luminance : min: 0.0001 cd/m2, max: 1000 cd/m2( R* f8 F' w; h$ P7 L
Maximum Content Light Level : 721 cd/m2* ~/ a* w' B, _1 j9 D
Maximum Frame-Average Light Level : 227 cd/m2* j) S* C1 g: g5 H0 ^5 m

; q6 ^# O: G5 c: W- F

" _9 W  B* t% O. l' {7 mAudio. l: {/ K) `/ k# G
ID : 24 Z9 ]( y% b% w- c2 M: ?
Format : E-AC-3 JOC% l3 Y5 D0 L% D+ O( j( w
Format/Info : Enhanced AC-3 with Joint Object Coding
, J5 r. B/ d/ M) F9 a+ O8 e% h0 mCommercial name : Dolby Digital Plus with Dolby Atmos
( L; T$ M0 j! U5 aCodec ID : A_EAC3/ U% V  I9 y: g4 k8 W
Duration : 2 h 22 min
3 y' k; R9 B4 {; {8 aBit rate mode : Constant: D- k& t) k! H( c8 @- {% y! b
Bit rate : 768 kb/s
: l% V9 W6 l( Y7 t4 A; q2 u- r6 nChannel(s) : 6 channels
' a! k1 c% }6 UChannel layout : L R C LFE Ls Rs
+ t- Y. n. A' `3 ?$ a, i9 ~( f4 E. ]Sampling rate : 48.0 kHz
8 C7 @/ d6 s7 \8 bFrame rate : 31.250 FPS (1536 SPF)
( ?0 ?% m) d5 J2 E7 A  OCompression mode : Lossy. a4 K$ H# ~; @$ d3 V9 ~
Stream size : 785 MiB (4%), V' M) @& k' y% j% O. Y) A7 P
Title : English  k# F( m- U, O( X5 l, j  w- l% |
Language : English
3 Y; m: u9 |9 p6 ^/ F9 MService kind : Complete Main
/ x; ?7 s. T- K2 b6 u; w+ bDefault : No
, Q8 n: g9 R; K! J4 PForced : No5 K+ ]  f2 I& d9 _
Complexity index : 16
- m" ]4 T: o( U: C) ANumber of dynamic objects : 15
4 a: ?) q( l6 _: jBed channel count : 1 channel# o  e8 C% [7 X4 C- E; W5 G2 C1 K
Bed channel configuration : LFE
0 _' [. Q" ~$ k+ B* B

' Z8 ~( r# T% ~' l. p0 [4 b蓝光高清网提示您  点击下方附件名称  马上开始下载
% ^: ?: s. r1 }
: i4 o, d, s! I3 B9 N. M

7 P$ N8 Q7 |' X) r4 M, M多版本下载时请注意区分
$ r$ R" T7 t/ g. u+ h% U; r/ g* ~9 g! m" ]

' D" |$ i3 h* ^6 r活在上城 / 纽约高地(台) / 狂舞纽约(港)/身在高地4k In.the.Heights.2021.2160p.HMAX.WEB-4k电影下载2 C  X  s2 S: W( i) A  ?9 P
7 s1 [( V8 D3 ~. W- L; p9 ~) z- U

( {' |* r" q" {6 P3 f身在高地4k In.the.Heights.2021.2160p.HMAX.WEB【18.61GB】' F1 Z8 R) u9 F, }8 X
身在高地4k In.the.Heights.2021.2160p.HMAX.WEB-DL.x265.10bit.HDR.DDP5.1.At.torrent (文件大小:93.72 KB)
加入蓝光高清网VIP会员  无限制下载本站所有资源---点这里

资源下载、资源播放、字幕使用、无法下载等常见问题---点这里
回复

使用道具 举报

精彩评论1

ggang1 发表于 2021-6-11 10:30:07 | 显示全部楼层
感谢楼主分享资源
回复 支持 反对

使用道具 举报

您需要登录后才可以回帖 登录 | 立即注册

本版积分规则

烧友之家(蓝光高清网)本站内容部分由用户自主分享和转载自互联网,转载目的在于传递更多信息,并不代表本网赞同其观点和对其真实性负责。 如有侵权、违反国家法律政策行为,请联系我们,我们会第一时间及时清除和处理!
蓝光高清网 综合资讯平台
关注我们
  • 官方微信公众号
  • 扫码下载官方APP

X3.4 Licensed© 2001-2013 蓝光高清网 烧友之家APP |网站地图