游客您好
第三方账号登陆
  • 点击联系客服

    在线时间:9:00-18:00

    客服QQ

    1371333023

    电子邮件

    lanniao@1080pro.net
  • 烧友之家APP

    随时掌握烧友资讯

  • 扫描二维码

    关注微信公众号

推荐阅读
蓝鸟
未知星球 | 未知职业
  • 关注0
  • 粉丝2
  • 帖子94297
精选帖子
开启左侧

本能 4k Basic.Instinct.1992.2160p.UHD.BluRay.x265.10bit.HDR.DTS-HD.MA.5.1-4k电影下载—43.25 GB

  [复制链接]
蓝鸟 发表于 2021-6-14 21:19:47 | 显示全部楼层 |阅读模式 打印 上一主题 下一主题
本能
上映时间:1992年
类型:剧情 惊悚 悬疑 
地区:美国 法国 
导演:保罗·范霍文
主演:迈克尔·道格拉斯 / 莎朗·斯通 / 乔治·杜兹达扎 / 珍妮·特里普里霍恩 / 丹尼斯·阿尔恩特
画质标准:4K HDR  封装音轨:DTS-HD.MA 5.1 
豆瓣评分:7.8分

加入蓝光高清网,轻松下载最新4k资源

您需要 登录 才可以下载或查看,没有帐号?立即注册

x
简       介' t" K$ K* e, K9 l8 ]8 I6 U# A

5 J/ n+ Y4 u8 R: L( p- u6 |, m1 X

  R7 R# A) M) U8 d  退休摇滚明星强尼·博兹(Bill Cable 饰)在性行为的过程中被人用白丝巾捆绑双手后用冰锥残忍刺死。其女友凯瑟琳·特拉梅尔(Sharon Stone 饰)是一名作家,去年出版的小说中就有双手被白丝巾捆绑的退休摇滚明星被女友用冰锥刺死的情节。虽然特拉梅尔通过了谎言测试,但曾枪杀两位游客却被判无罪的尼克·柯兰警探(Michael Douglas 饰)坚持认为特拉梅尔在说谎。因为他自己也曾接受过谎言测试,并且通过了……% m% b' R5 W) Z& K% V# b  {

6 L' B6 ~/ B8 p' P$ r& w
: l, C: b1 p# l' w- {
影片参数
% D  N- X4 q2 h% g3 ?& u
第六感追缉令(台) / 氷の微笑/本能4k Basic.Instinct.1992.2160p.UHD.BluRay.x265.10bit.HDR.DTS-HD.MA.5.1-4k电影信息# [& T2 S8 ]& b% u- p& Z; t5 P6 O
Video
3 h% j8 E3 p: s5 U1 \+ n/ LID : 17 U/ G" n5 E  `- u
Format : HEVC0 _  H+ m! c. q9 B2 w5 [0 F
Format/Info : High Efficiency Video Coding2 \& C% A' V' x4 |; t# a  L
Format profile : Main 10@L5.1@High$ C; e1 y! D" _' l/ x1 t
HDR format : SMPTE ST 2086, HDR10 compatible
7 u( r8 T8 l; VCodec ID : V_MPEGH/ISO/HEVC
& P$ i% P  j1 j+ q8 Q. U5 WDuration : 2 h 8 min2 }7 I3 H! Q4 N# H
Bit rate : 44.3 Mb/s! G' p, V. ?! K3 b0 Z  A
Width : 3 840 pixels
/ G" X# J2 G1 [Height : 1 608 pixels. W3 C- Z/ O* ], s  [
Display aspect ratio : 2.40:1/ N6 c* \! m' s( K3 i( I
Frame rate mode : Constant
* D7 n/ `, F7 e1 @0 ^Frame rate : 24.000 FPS
3 p; X" o; y2 E4 Q  z0 ]! U4 ]( bColor space : YUV+ p9 O3 l4 R/ G$ e0 x7 M. g" E$ y
Chroma subsampling : 4:2:0 (Type 2)
7 c3 m4 O4 d6 A- R9 l3 oBit depth : 10 bits- {( S; ^2 G/ U- D
Bits/(Pixel*Frame) : 0.299
0 ~) ?* f2 _3 D! bStream size : 39.7 GiB (93%)
6 I- H) |- I* a* }Writing library : x265 3.5+9-bf91444e0:[Windows][MSVC 1900][64 bit] 10bit% b' k. K% J0 N- B
Encoding settings : cpuid=1111039 / frame-threads=5 / numa-pools=32 / wpp / no-pmode / no-pme / no-psnr / no-ssim / log-level=2 / input-csp=1 / input-res=3840x1608 / interlace=0 / total-frames=184641 / level-idc=51 / high-tier=1 / uhd-bd=0 / ref=4 / no-allow-non-conformance / repeat-headers / annexb / aud / no-eob / no-eos / hrd / info / hash=0 / no-temporal-layers / no-open-gop / min-keyint=24 / keyint=250 / gop-lookahead=0 / bframes=4 / b-adapt=2 / b-pyramid / bframe-bias=0 / rc-lookahead=25 / lookahead-slices=4 / scenecut=40 / hist-scenecut=0 / radl=0 / no-splice / no-intra-refresh / ctu=64 / min-cu-size=8 / rect / no-amp / max-tu-size=32 / tu-inter-depth=1 / tu-intra-depth=1 / limit-tu=0 / rdoq-level=2 / dynamic-rd=0.00 / no-ssim-rd / signhide / no-tskip / nr-intra=0 / nr-inter=0 / no-constrained-intra / no-strong-intra-smoothing / max-merge=3 / limit-refs=3 / limit-modes / me=3 / subme=3 / merange=57 / temporal-mvp / no-frame-dup / no-hme / weightp / no-weightb / no-analyze-src-pics / deblock=-3:-3 / no-sao / no-sao-non-deblock / rd=4 / selective-sao=0 / no-early-skip / rskip / no-fast-intra / no-tskip-fast / no-cu-lossless / no-b-intra / no-splitrd-skip / rdpenalty=0 / psy-rd=2.00 / psy-rdoq=1.00 / no-rd-refine / no-lossless / cbqpoffs=0 / crqpoffs=0 / rc=crf / crf=15.2 / qcomp=0.60 / qpstep=4 / stats-write=0 / stats-read=0 / vbv-maxrate=160000 / vbv-bufsize=160000 / vbv-init=0.9 / min-vbv-fullness=50.0 / max-vbv-fullness=80.0 / crf-max=0.0 / crf-min=0.0 / ipratio=1.40 / pbratio=1.30 / aq-mode=2 / aq-strength=1.00 / cutree / zone-count=0 / no-strict-cbr / qg-size=32 / no-rc-grain / qpmax=69 / qpmin=0 / no-const-vbv / sar=1 / overscan=0 / videoformat=5 / range=0 / colorprim=9 / transfer=16 / colormatrix=9 / chromaloc=1 / chromaloc-top=2 / chromaloc-bottom=2 / display-window=0 / master-display=G(8500,39850)B(6550,2300)R(35400,14600)WP(15635,16450)L(10000000,01) / cll=0,0 / min-luma=0 / max-luma=1023 / log2-max-poc-lsb=8 / vui-timing-info / vui-hrd-info / slices=1 / no-opt-qp-pps / no-opt-ref-list-length-pps / no-multi-pass-opt-rps / scenecut-bias=0.05 / hist-threshold=0.03 / no-opt-cu-delta-qp / no-aq-motion / hdr10 / hdr10-opt / no-dhdr10-opt / no-idr-recovery-sei / analysis-reuse-level=0 / analysis-save-reuse-level=0 / analysis-load-reuse-level=0 / scale-factor=0 / refine-intra=0 / refine-inter=0 / refine-mv=1 / refine-ctu-distortion=0 / no-limit-sao / ctu-info=0 / no-lowpass-dct / refine-analysis-type=0 / copy-pic=1 / max-ausize-factor=1.0 / no-dynamic-refine / no-single-sei / no-hevc-aq / no-svt / no-field / qp-adaptation-range=1.00 / scenecut-aware-qp=0conformance-window-offsets / right=0 / bottom=0 / decoder-max-rate=0 / no-vbv-live-multi-pass$ q& Y9 i: F" D7 O0 p/ N" [& g
Default : Yes
3 _  d7 X  O' S$ ?# }Forced : No
! m5 I% g2 M! ]! A7 V- vColor range : Limited
8 S/ j% _$ |0 _Color primaries : BT.2020
/ d( E7 X4 ~1 v, H% |# ]+ f. BTransfer characteristics : PQ% |) b+ n; t& |) U% L2 V7 P. Z
Matrix coefficients : BT.2020 non-constant, B6 w4 _, B3 W: E3 ?. R( N
Mastering display color primaries : BT.2020
7 O0 b1 j7 \2 W( u! V0 SMastering display luminance : min: 0.0001 cd/m2, max: 1000 cd/m27 d  j$ ~; Q3 |5 G6 f
- Q; R, Y0 f3 z7 x
0 Y3 b2 H. S/ a" g5 D, j
Audio #1
8 Y; _; P0 Z+ x& `5 FID : 2
( ?* V" B6 C+ b3 y" kFormat : DTS XLL; [6 G  S7 {: G
Format/Info : Digital Theater Systems, H5 {( ?% L! O" ]
Commercial name : DTS-HD Master Audio1 G. j, Y5 X% t* F5 U, e
Codec ID : A_DTS
6 ?5 S- C( ~: |Duration : 2 h 8 min
; U" y" Y& I% ~8 XBit rate mode : Variable# d- Q4 T7 k% z5 q: }
Bit rate : 3 171 kb/s
1 a4 i- n+ P3 e# SChannel(s) : 6 channels
- g) a( m- d* uChannel layout : C L R Ls Rs LFE
, M- c& e2 Y9 h( ^& g: E) D; kSampling rate : 48.0 kHz
7 p3 b! o: h5 j' L9 G! pFrame rate : 93.750 FPS (512 SPF)! A/ I# ?, O0 X4 a1 p: e: H, U0 B
Bit depth : 24 bits3 h2 P- h% }; W4 y
Compression mode : Lossless
4 p1 l9 l& C$ m+ x0 cStream size : 2.84 GiB (7%)9 l/ ~7 z: q5 j7 W7 E
Title : DTS-HD MA 5.1+ a% v) l+ Z0 L1 ~8 x8 X! y
Language : English' O2 y1 D, \" E4 g$ F1 T2 \  U$ E
Default : Yes6 d8 N3 ^: r. \/ X0 w7 u
Forced : No
: R. u) u# v- T2 s, U: I3 _! V4 b% C' `

- s" D1 G  n" ^8 d2 NAudio #2
4 V5 C# {, M' b, t1 C5 J, JID : 3# p; p3 s8 ~' `: f
Format : AAC LC
) T+ C7 y9 B5 y8 NFormat/Info : Advanced Audio Codec Low Complexity  ]9 y' m9 _3 n1 t# B
Codec ID : A_AAC-2
- x% H) X% ]4 X3 ^$ V# [" IDuration : 2 h 8 min3 M1 L3 p& R; I5 t2 v( p& T
Bit rate : 113 kb/s
$ i% }$ J* ]1 vChannel(s) : 2 channels
  }, c5 o1 r! |9 m1 ?Channel layout : L R  {& P1 P* @* |# ]2 _
Sampling rate : 48.0 kHz
+ Q% J: o) k8 YFrame rate : 46.875 FPS (1024 SPF)
) Z/ J9 m; |3 Q8 ^2 a  hCompression mode : Lossy
' l$ b: u0 j/ }2 V' f  d5 V! ^Delay relative to video : 9 ms5 h, B/ o4 p0 A' M) K: c2 A
Stream size : 104 MiB (0%)% U5 A$ g/ I, x! Q
Title : Commentary 1+ @- |) ^4 O7 F5 b/ Z/ ~/ Y  k) q0 j
Language : English
: l$ {  N5 b, yDefault : No
0 Q) L  S9 y9 A- A+ HForced : No
& }9 a4 ^3 M0 Q$ g5 B: N! u' k1 K' @

/ ?$ M8 A1 }" U* j6 uAudio #3$ u/ R- M% C3 q2 `& o
ID : 4( r) K' s: E, B7 Z9 g# U3 M
Format : AAC LC& w2 s& r$ G: F# x) U2 F0 ?
Format/Info : Advanced Audio Codec Low Complexity$ I  x1 ^$ O( p
Codec ID : A_AAC-2" E  B' J# u# u. \3 l5 w8 i! Q
Duration : 2 h 8 min; A0 u7 w% ~/ a! B
Bit rate : 115 kb/s
% _) Z$ ?9 X% N7 \9 \+ HChannel(s) : 2 channels
8 N; @$ A( R$ {( F4 d2 cChannel layout : L R) w1 l% N! K' C# M
Sampling rate : 48.0 kHz, G3 k( p; B1 e0 X
Frame rate : 46.875 FPS (1024 SPF)
& y- b7 B% m6 T$ A* C7 SCompression mode : Lossy6 o  M! g4 L2 a6 F0 J! K
Delay relative to video : 9 ms5 `% l- Z: N7 D9 l0 S
Stream size : 106 MiB (0%)' G- f1 N: Y# |
Title : EnglishCommentary 2
- o- l: S4 |+ c/ v0 E6 I$ hLanguage : English
9 ~6 ~/ U& g' u1 \# x% gDefault : No' x6 x8 v: w, |% n+ O$ C( A5 E
Forced : No

) _. _( a+ f* M: w% x7 K& B( @+ q1 }3 o
蓝光高清网提示您  点击下方附件名称  马上开始下载
% n; v9 h0 d' Y( g' w* U, ?! T9 i: g, W' W1 z  |, y. d

( x- }" Z) ?0 E3 o- [5 R5 D; E3 E第六感追缉令(台) / 氷の微笑/本能4k Basic.Instinct.1992.2160p.UHD.BluRay.x265.10bit.HDR.DTS-HD.MA.5.1-4k电影下载
1 Q# o: z( R# v) U5 K% x; F1 F
8 d) }7 C5 m1 E- d' x本能 4k Basic.Instinct.1992.2160p.UHD.BluRay.x265.10bit.HDR.DTS-HD.MA.5.1【43.25GB】
0 m  W' |; z5 } 本能4k Basic.Instinct.1992.2160p.UHD.BluRay.x265.10bit.HDR.DTS-HD.MA.5.1-.torrent (文件大小:109 KB)
加入蓝光高清网VIP会员  无限制下载本站所有资源---点这里

资源下载、资源播放、字幕使用、无法下载等常见问题---点这里
回复

使用道具 举报

精彩评论5

gxygxy手机认证 发表于 2021-6-15 00:19:11 | 显示全部楼层
老电影了,评分还挺高的,,,
回复 支持 反对

使用道具 举报

ggang1 发表于 2021-6-15 09:52:50 | 显示全部楼层
楼主幸苦了 感谢无私付出
回复 支持 反对

使用道具 举报

liujinhu0327手机认证 发表于 2021-6-18 14:25:21 | 显示全部楼层
! W0 @: F) R' p4 N: }
楼主幸苦了 感谢无私付出
回复 支持 反对

使用道具 举报

ccty395手机认证 发表于 2021-6-23 10:17:22 | 显示全部楼层
  ]0 E, h$ r8 S- H( h: a
楼主幸苦了, 感谢!
回复 支持 反对

使用道具 举报

Romariosheng 发表于 2021-6-25 16:17:24 来自手机 | 显示全部楼层
楼主幸苦了, 感谢
回复 支持 反对

使用道具 举报

您需要登录后才可以回帖 登录 | 立即注册

本版积分规则

烧友之家(蓝光高清网)本站内容部分由用户自主分享和转载自互联网,转载目的在于传递更多信息,并不代表本网赞同其观点和对其真实性负责。 如有侵权、违反国家法律政策行为,请联系我们,我们会第一时间及时清除和处理!
蓝光高清网 综合资讯平台
关注我们
  • 官方微信公众号
  • 扫码下载官方APP

X3.4 Licensed© 2001-2013 蓝光高清网 烧友之家APP |网站地图