[动作] 天将雄狮/天降雄狮 Dragon.Blade.2015.CHINESE.1080p.BluRay.x264.DTS-RARBG 11.4GB

[复制链接]
蓝鸟VIP会员 永久VIP 发表于 2019-8-22 01:04:11 | 显示全部楼层 |阅读模式 打印 上一主题 下一主题

马上注册,轻松下载,海量资源,让你轻松玩转社区。

您需要 登录 才可以下载或查看,没有帐号?立即注册

x


◎译  名 天将雄师/天将雄狮/天降雄狮  
◎片  名 Dragon Blade
◎年  代 2015
◎国  家 中国
◎类  别 动作/冒险/剧情
◎语  言 普通话
◎字  幕 英文
◎IMDB评分 6.6/10 from 1,746 users
◎IMDB链接 http://www.imdb.com/title/tt3672840/
◎片  长 2h 7mn
◎导  演 李仁港 Daniel Lee
◎主  演 成龙 Jackie Chan ...霍安
      约翰·库萨克 John Cusack ...卢魁斯
      阿德里安·布洛迪 Adrien Brody ...提比斯
      林鹏 Peng Lin ...冷月
      王若心 Amanda ...秀清
      崔始源 Si-won Choi ...殷破
      肖央 Yang Xiao ...雁头      
      王太利 Taili Wang ...老鼠  
      洪天照 Sammy Hung ...红日
      刘承俊 Sung-junYoo ...山豹
      西蒙子 Joey Jozef ...普理斯
      冯绍峰 Shaofeng Feng ...霍去病     
      吴建豪 VanNess Wu ...考古学家
      林嘉欣 Karena Lam ...考古学家
      沙妮·文森 Sharni Vinson ...普理斯母亲 The Queen
      Tomer Oz ...Huo An Shou Xia
      保罗·菲利普·克拉克 Paul Philip Clark ...General Doramis
      Joel Adrian ...Lu kui si fu jiang 
      Vander McLeod ...Roman General
      Danny Salay ...Roman General
      Miroslav Karel ...Roman General
◎简  介 
  西汉汉元帝年间,西域都护府大都护霍安遭奸人陷害,沦为奴役,被刺配至雁门关修城。恰在此时,罗马将军卢魁斯护卫遭到哥哥迫害的罗马小王子逃命至雁门关。双雄在西域戈壁相遇,从开始的兵戎相见到惺惺相惜,最终化敌为友。一日,霍安为洗清自己冤屈四处追查时,无意间撞破了好兄弟殷破与罗马大王子提比斯不可告人的秘密。与此同时,提比斯为追杀卢魁斯与小王子一行人也亲自带兵赶来西域。为保护小王子和西域诸国的安危,霍安与卢魁斯联手与提比斯在戈壁大漠展开了一场生死之战......
花絮
.拍摄过《见龙卸甲》、《鸿门宴》等多部古装电影的香港导演李仁港,在《天将雄师》中是首次与成龙合作。
.《天将雄师》剧组工作人员来自于五湖四海,工作人员之间交流常要用到包括汉语、粤语、英语、法语、德语、日语、韩语等十多种语言交流,沟通和管理起来都相当有难度。
.“筷子兄弟”大银幕处女作《老男孩之猛龙过江》是由李仁港导演亲自监制,因此《天将雄师》成了双方的再次合作。
.谈及阿德里安·布洛迪的加盟,成龙表示自己用一顿饭就搞定了他。
.据剧组人员透露,在敦煌拍摄时,每天剧组能吃掉2800个馒头,喝掉饮用水近百吨。
.剧组的道具库占地面积2500平米,道具多达10万余件,其中超过6万件道具为纯手工打造,成龙也亲自参与到道具的设计中。
.剧组每天的工作人员数量高达700多人,跋涉4000公里取景横店、敦煌、阿克塞等地,制作费达到4亿人民币。
.剧组在沙漠戈壁的恶劣环境中工作了两个多月,因当地环境恶劣,剧组拍摄期间数次遭遇沙尘暴和酷暑等极端天气,约翰·库萨克、阿德里安·布洛迪等国际影星纷纷表示虽然艰苦,但也是一种特别的经历。
.在《天将雄师》中,成龙饰演的西域大都护霍安以维护西域和平为己任,但他并不是“一个人在战斗”,而是拥有一支骁勇善战的“维和敢死队”。电影之外,成龙同样有一帮忠心耿耿的兄弟——成家班。
Video
ID                                       : 1
Format                                   : AVC
Format/Info                              : Advanced Video Codec
Format profile                           : [email protected]
Format settings, CABAC                   : Yes
Format settings, ReFrames                : 4 frames
Codec ID                                 : V_MPEG4/ISO/AVC
Duration                                 : 2h 7mn
Bit rate                                 : 11.5 Mbps
Width                                    : 1 920 pixels
Height                                   : 804 pixels
Display aspect ratio                     : 2.40:1
Frame rate mode                          : Constant
Frame rate                               : 24.000 fps
Color space                              : YUV
Chroma subsampling                       : 4:2:0
Bit depth                                : 8 bits
Scan type                                : Progressive
Bits/(Pixel*Frame)                       : 0.310
Stream size                              : 9.83 GiB (86%)
Title                                    : Dragon.Blade.2015.CHINESE.1080p.BluRay.x264.DTS-RARBG
Writing library                          : x264 core 144 r2525M 40bb568
Encoding settings                        : cabac=1 / ref=4 / deblock=1:0:0 / analyse=0x3:0x113 / me=umh / subme=7 / psy=1 / psy_rd=1.00:0.15 / mixed_ref=1 / me_range=16 / chroma_me=1 / trellis=1 / 8x8dct=1 / cqm=0 / deadzone=21,11 / fast_pskip=1 / chroma_qp_offset=-3 / threads=40 / lookahead_threads=8 / sliced_threads=0 / nr=0 / decimate=1 / interlaced=0 / bluray_compat=0 / constrained_intra=0 / bframes=3 / b_pyramid=2 / b_adapt=2 / b_bias=0 / direct=3 / weightb=1 / open_gop=0 / weightp=2 / keyint=250 / keyint_min=25 / scenecut=40 / intra_refresh=0 / rc_lookahead=50 / rc=abr / mbtree=1 / bitrate=11500 / ratetol=1.0 / qcomp=0.60 / qpmin=0 / qpmax=69 / qpstep=4 / ip_ratio=1.40 / aq=1:1.00
Language                                 : Chinese
Default                                  : Yes
Forced                                   : No
Audio
ID                                       : 2
Format                                   : DTS
Format/Info                              : Digital Theater Systems
Mode                                     : 16
Format settings, Endianness              : Big
Codec ID                                 : A_DTS
Duration                                 : 2h 7mn
Bit rate mode                            : Constant
Bit rate                                 : 1 509 Kbps
Channel(s)                               : 6 channels
Channel positions                        : Front: L C R, Side: L R, LFE
Sampling rate                            : 48.0 KHz
Bit depth                                : 16 bits
Compression mode                         : Lossy
Stream size                              : 1.34 GiB (12%)
Title                                    : Dragon.Blade.2015.CHINESE.1080p.BluRay.x264.DTS-RARBG
Language                                 : Chinese
Default                                  : Yes
Forced                                   : No
Text
ID                                       : 3
Format                                   : UTF-8
Codec ID                                 : S_TEXT/UTF8
Codec ID/Info                            : UTF-8 Plain Text
Language                                 : English
Default                                  : Yes
Forced                                   : Yes
Menu
00:00:00.000                             : en:Chapter 01
00:06:37.291                             : en:Chapter 02
00:13:24.583                             : en:Chapter 03
00:23:58.875                             : en:Chapter 04
00:33:57.041                             : en:Chapter 05
00:40:30.375                             : en:Chapter 06
00:50:12.583                             : en:Chapter 07
00:59:04.375                             : en:Chapter 08
01:04:50.500                             : en:Chapter 09
01:14:54.541                             : en:Chapter 10
01:19:41.291                             : en:Chapter 11
01:26:44.416                             : en:Chapter 12
01:32:30.333                             : en:Chapter 13
01:38:30.250                             : en:Chapter 14
01:45:03.875                             : en:Chapter 15
01:52:01.541                             : en:Chapter 16

精彩剧照


                                       

蓝光高清网提示您 点击下方附件名称 马上开始下载



温馨提示:
本站资源优先使用迅雷下载,迅雷会员下载,速度基本可以跑满宽带
如果遇到无资源或者版权问题无法下载,推荐使用115网盘离线下载(点击查看115网盘离线下载教程


  • 该资源需要您回复以后 刷新网页进行下载操作

  • 1、Dragon.Blade.2015.CHINESE.1080p.BluRay.x264.DTS-RARBG.torrent 58KB 已下载 0 次

加入蓝光高清网VIP会员  无限制下载本站所有资源---点此加入

资源下载、资源播放、字幕使用、无法下载等常见问题---点这里

回复

使用道具 举报

懒得打字嘛,点击右侧快捷回复
高级模式
B Color Image Link Quote Code Smilies 上传

本版积分规则

关注0

粉丝0

帖子66311

发布主题
最新电影 论坛
广告位
联系我们
点击这里联系客服

服务时间:
周一到周日8:00-23:30

  • 打开微信扫一扫
    关注公众号

  • 手机QQ扫一扫
    添加客服

Archiver手机版蓝光高清网 ( 渝ICP备18006373号-2 )|网站地图

Powered by Discuz! X3.4  © 2001-2013 Comsenz Inc.