游客您好
第三方账号登陆
  • 点击联系客服

    在线时间:9:00-18:00

    客服QQ

    1371333023

    电子邮件

    lanniao@1080pro.net
  • 烧友之家APP

    随时掌握烧友资讯

  • 扫描二维码

    关注微信公众号

推荐阅读
蓝鸟
未知星球 | 未知职业
  • 关注0
  • 粉丝2
  • 帖子94297
精选帖子
开启左侧

安妮:纽约奇缘4k Annie.2014.2160p.BCORE.WEB-DL.x265.10bit.HDR.DTS-HD.MA.5.1-4k电影下载—65.53 GB

[复制链接]
蓝鸟 发表于 2021-6-20 21:39:52 | 显示全部楼层 |阅读模式 打印 上一主题 下一主题
安妮:纽约奇缘
上映时间:2014年
类型:喜剧 剧情 音乐 家庭 
地区:美国 
导演:威尔·古勒
主演:杰米·福克斯 / 奎文赞妮·瓦利斯 / 罗丝·伯恩 / 鲍比·坎纳瓦尔 / 阿德沃尔·阿吉纽依-艾格拜吉
画质标准:4K HDR  封装音轨:DTS-HD.MA 5.1 
豆瓣评分:6.4分

加入蓝光高清网,轻松下载最新4k资源

您需要 登录 才可以下载或查看,没有帐号?立即注册

x
简       介8 T1 o* S/ E2 d1 t  N8 m8 L
/ W% [$ L" K4 R+ {( _  k5 \! {

  W% x5 K. B1 g9 ~0 ^* A" ]  安妮(奎文赞妮·瓦利斯 Quvenzhané Wallis 饰)从小就被父母抛弃,然而,乐观坚强的她一直都相信着,自己的父母总有一天会回来同她相认。安妮生活在汉尼根小姐(卡梅隆·迪亚茨 Cameron Diaz 饰)的家中,在那里,日子算不上好过,然而,这并没能浇灭安妮对于生活的热情和对于未来的希望。
$ J# s& k4 ?* L, m  威尔(杰米·福克斯 Jamie Foxx 饰)是一名富有的商人,野心勃勃的他决心竞选纽约市长。在副总裁格蕾丝(萝丝·拜恩 Rose Byrne 饰)和竞选顾问盖伊(鲍比·坎纳瓦尔 Bobby Cannavale 饰)的怂恿之下,威尔做出了一个惊人的决定——收养安妮,企图依靠这一举动来为自己赢得更高的支持率。然而,古灵精怪的安妮哪会乖乖听从他的摆布呢?

; ]+ A  u7 o7 ]1 p4 M; _2 N% T% A7 U, V; l2 c) u9 [

/ I6 Q* U2 \" h+ P4 v) u, d影片参数* m) a" L$ o9 v- z& ^
安妮:纽约情缘 / 安妮/安妮:纽约奇缘4k Annie.2014.2160p.BCORE.WEB-DL.x265.10bit.HDR.DTS-HD.MA.5.1-4k电影信息
7 e3 I6 Q: J6 f: w1 x' @  {Video
, Y4 E8 z. ]  Y+ c! m6 I% KID : 1" p) {2 j" Y% k" A0 m
Format : HEVC
0 ~) B* u' ?5 Q* [6 S- w/ |Format/Info : High Efficiency Video Coding0 R2 }7 @0 A9 R+ h! I+ z
Format profile : Main 10@L5.2@High
1 |8 J) ^/ W# O1 [& tHDR format : SMPTE ST 2086, HDR10 compatible
, z* h: _0 b! O7 ~& L$ a, T5 FCodec ID : V_MPEGH/ISO/HEVC5 B  c1 d8 b9 i2 B" B) H$ m
Duration : 1 h 58 min' C- h# ]! z7 c' o' l
Bit rate : 75.6 Mb/s5 x7 A/ |) ~$ j8 K; z  \" n0 @+ @+ [
Width : 3 840 pixels
  \' g. \$ h) d: zHeight : 2 160 pixels3 Q; @$ p7 ?+ [+ Y$ x8 d9 t7 O
Display aspect ratio : 16:9  }* i6 B% w0 R& c/ y
Frame rate mode : Constant/ S( Q. z8 F- x  F6 o
Frame rate : 23.976 (24000/1001) FPS
, p0 f7 {. S: GColor space : YUV
  K, P( W( U& S; B4 J, s4 V5 q9 S. }Chroma subsampling : 4:2:0 (Type 2)7 A( e& F5 \0 \1 }  j7 ^6 b$ U
Bit depth : 10 bits% f' R6 m; s$ V/ P+ G
Bits/(Pixel*Frame) : 0.380
0 ~% H, n# x3 z2 h3 KStream size : 62.5 GiB (95%)
8 b7 a$ n0 J7 a# `" i3 NLanguage : English
& P3 ]$ J3 J8 L/ o. q; R5 B8 nDefault : Yes" F: u6 j/ ?: l! P7 T4 U1 K
Forced : No, n) `( H% r5 o. M; ]
Color range : Full
) e/ J% O3 D0 s0 X! U; _# bColor primaries : BT.2020) q0 f9 Y9 z3 E- P+ @' S
Transfer characteristics : PQ
0 T/ D  W) l$ q" XMatrix coefficients : BT.2020 non-constant
; ~( m- A; _: g: y3 h% J% y, A* EMastering display color primaries : Display P3) T/ Z* }: [* `% e0 G% t
Mastering display luminance : min: 0.0050 cd/m2, max: 4000 cd/m2
$ ]  ?  z  V3 t8 B7 R# i5 E& VMaximum Content Light Level : 2902 cd/m2, U8 R/ a' a4 e# m
Maximum Frame-Average Light Level : 1165 cd/m2
& H# w1 e$ I! ^7 L& \4 U& s8 ^0 t7 K( l9 g
) F6 c# u  x9 v6 f* o
Audio #1. L+ j' v0 W+ k! h! D# L8 \
ID : 2
6 W$ S- [4 z- R' V+ N1 lFormat : DTS XLL
$ ?2 r% U8 B: i4 ^Format/Info : Digital Theater Systems
( X) m, U& g) [. F9 J# kCommercial name : DTS-HD Master Audio
7 x6 j; h6 l% X% NCodec ID : A_DTS6 d$ |( ]# g, f  \& x
Duration : 1 h 58 min
, i- i, J$ M9 K) VBit rate mode : Variable
: n+ J0 F7 G* a5 l- f+ wBit rate : 2 275 kb/s
* c5 t, b0 q* K" c: K5 O7 A+ qChannel(s) : 6 channels  {/ y) Z& D: S: |
Channel layout : C L R Ls Rs LFE
9 I5 p  {( i+ `& K  [7 [. tSampling rate : 48.0 kHz
2 ~( j: x# G/ B% f8 A' ]8 RFrame rate : 93.750 FPS (512 SPF)3 T; j3 `: s. r9 p+ `, u
Bit depth : 16 bits) r& c: H& f. d' `
Compression mode : Lossless( w. U8 y, _+ A. ?* [
Delay relative to video : 3 ms4 D% y7 I- d) j  j9 V7 t" p4 T
Stream size : 1.88 GiB (3%)
( ^, x9 L) |- g& X: g# OTitle : DTS-HD MA 5.1& L" R% g. A: \" k6 n
Language : English
3 ?! o( [( E/ y) oDefault : Yes
' c( A. o+ k2 ~" l& j8 xForced : No) ^. p& F  t2 g0 [, C

1 @: T0 A4 I& ?+ O- j) U, M* F/ ]

- x; r% {3 ]& w. f; x. Z! wAudio #2
; ]: ~0 v' f# [9 a' V3 o, j* U4 }- KID : 3
) c9 J8 M& i7 m0 l" x1 AFormat : AC-36 Y" w/ F/ @6 h8 X& O/ X7 m
Format/Info : Audio Coding 32 P% ~# c0 w) _& z3 n
Commercial name : Dolby Digital
- U4 n8 y/ q6 e7 }Codec ID : A_AC3) N5 d* a5 t  U9 }
Duration : 1 h 58 min
( }. k+ d. `# UBit rate mode : Constant
2 r4 g/ i5 V8 e5 M& w8 l* fBit rate : 640 kb/s
2 r( B# t- n) K9 p2 b; C0 YChannel(s) : 6 channels
5 X0 Z* W; o- o* a$ p+ Q$ D5 XChannel layout : L R C LFE Ls Rs4 [! G) I$ s3 d* q
Sampling rate : 48.0 kHz; @! m, T0 v, o% D5 R
Frame rate : 31.250 FPS (1536 SPF)
+ J8 Y7 N' p9 N8 T% sCompression mode : Lossy/ q; A, \- K# t' X
Stream size : 542 MiB (1%)
5 r" _' D, E8 e/ O8 i2 K$ m9 B7 xTitle : DD 5.1
5 c' E4 A2 F4 u+ ^' U# vLanguage : English
; f+ q: R- q8 ^$ N9 C6 HService kind : Complete Main
3 B$ F2 s5 t" e1 {# ^9 ?) ?Default : No% _! o5 a4 e/ n( V5 W. L
Forced : No
5 `: o) L. g' W, ^! y
( h9 V& m! X* c: u% ~

- a7 A7 h& G& ^! fAudio #3' x1 E; P' J, P/ S6 y$ o; J
ID : 43 u- F" x: a2 A( g
Format : DTS8 _7 c; e' f' r
Format/Info : Digital Theater Systems0 [1 l( A$ `1 ?
Codec ID : A_DTS+ u# L" E% B. e
Duration : 1 h 58 min
0 M  b& H: n' I4 j' iBit rate mode : Constant
( V# ]5 v6 q* t( K: s. c( m% ABit rate : 768 kb/s
. `3 ?6 L+ B( u6 i: i" R9 RChannel(s) : 6 channels1 E2 f/ T: ^2 Z6 k  D' b/ y* V
Channel layout : C L R Ls Rs LFE) Q6 p$ Y: m  ^, R: G
Sampling rate : 48.0 kHz$ M+ d: Q9 w6 ~- {* M
Frame rate : 93.750 FPS (512 SPF)1 G1 K: ~& q+ U3 w
Bit depth : 24 bits5 O; `4 j( Z# O8 D6 u9 n+ E+ r) z
Compression mode : Lossy
0 u3 }* }# O/ d. w9 c/ a, x! EStream size : 650 MiB (1%)! `2 r" [- e! Z; K9 C' T
Title : DTS 5.1. C- J4 w  @1 E2 B& M( J
Language : English
: S( ^5 v* C) ~( l! _Default : No; J: ]. ^" m" E6 P$ n
Forced : No
+ g3 D1 |3 X6 T8 n) F4 B5 S

2 ?  f3 _1 r. `3 ^( l' u蓝光高清网提示您  点击下方附件名称  马上开始下载5 [6 z  V$ @% a2 b( H
$ b) v0 i6 l$ ?# p( w( K, F

, Q: N7 e7 V' a7 m8 r  m1 c安妮:纽约情缘 / 安妮/安妮:纽约奇缘4k Annie.2014.2160p.BCORE.WEB-DL.x265.10bit.HDR.DTS-HD.MA.5.1-4k电影下载
4 l8 `% H7 E7 [# Y: o
  z& ?# a( G+ n3 p" G* j% x安妮:纽约奇缘4k Annie.2014.2160p.BCORE.WEB-DL.x265.10bit.HDR.DTS-HD.MA.5.1【65.53GB】
* ]# T1 s$ M2 W# `6 Z3 r0 A  d 安妮:纽约奇缘4k Annie.2014.2160p.BCORE.WEB-DL.x265.10bit.HDR.DTS-HD.MA.5.torrent (文件大小:164.48 KB)
加入蓝光高清网VIP会员  无限制下载本站所有资源---点这里

资源下载、资源播放、字幕使用、无法下载等常见问题---点这里
回复

使用道具 举报

精彩评论3

ggang1 发表于 2021-6-21 09:33:44 | 显示全部楼层
感谢分享,资源不错
回复 支持 反对

使用道具 举报

liyun80000手机认证 发表于 2021-6-21 15:09:24 | 显示全部楼层
谢谢楼主无私奉献
回复 支持 反对

使用道具 举报

mx-e手机认证 发表于 2021-6-23 03:50:12 | 显示全部楼层
谢谢楼主分享高清资源
回复 支持 反对

使用道具 举报

您需要登录后才可以回帖 登录 | 立即注册

本版积分规则

烧友之家(蓝光高清网)本站内容部分由用户自主分享和转载自互联网,转载目的在于传递更多信息,并不代表本网赞同其观点和对其真实性负责。 如有侵权、违反国家法律政策行为,请联系我们,我们会第一时间及时清除和处理!
蓝光高清网 综合资讯平台
关注我们
  • 官方微信公众号
  • 扫码下载官方APP

X3.4 Licensed© 2001-2013 蓝光高清网 烧友之家APP |网站地图