游客您好
第三方账号登陆
  • 点击联系客服

    在线时间:9:00-18:00

    客服QQ

    1371333023

    电子邮件

    lanniao@1080pro.net
  • 烧友之家APP

    随时掌握烧友资讯

  • 扫描二维码

    关注微信公众号

推荐阅读
蓝鸟
未知星球 | 未知职业
  • 关注0
  • 粉丝2
  • 帖子94297
精选帖子
开启左侧

爬坡人生 4K.The.Climb.2019.2160p.BCORE.WEB-DL.x265.10bit.HDR.DTS-HD.MA.5.1-4k电影下载—54.66 GB

[复制链接]
蓝鸟 发表于 2021-6-20 21:47:12 | 显示全部楼层 |阅读模式 打印 上一主题 下一主题
爬坡人生
上映时间:2019年
类型:喜剧 
地区:美国 
导演:迈克尔·安盖洛·科维诺
主演:迈克尔·安盖洛·科维诺 / 凯尔·马文 / 盖尔·兰金 / 朱迪丝·戈德雷什 / 塔利亚·巴尔萨姆
画质标准:4K HDR  封装音轨:DTS-HD.MA 5.1 
豆瓣评分:6.6分

加入蓝光高清网,轻松下载最新4k资源

您需要 登录 才可以下载或查看,没有帐号?立即注册

x
简       介% n* Y" G2 ]5 I) `6 m: S4 G
% U# b: T: h$ ?% @

4 y5 M) {- c/ A% J+ g" t  风景优美的山间公路,气喘吁吁的凯尔,一边奋力踩著自行车,一边感谢死党麦可贴心在他婚前安排这趟旅程。「我和你未婚妻上床了。」麦可突如其来的坦诚,让上气不接下气的凯尔破口大骂,还得注意控制呼吸,好追赶上去痛扁他一顿。2 M& o; F, g7 \$ u% @1 y
  导演麦可偕同好友凯尔合力编写剧本,并亲身上阵饰演这对相爱相杀的难兄难弟。从八分钟一镜到底的同名短片延伸而成,坎城首映后掌声如雷,不仅夺下评审团「怦然心动」奖,高明的场面调度与出众的幽默感,也获得〈综艺〉、〈好莱坞报导〉齐声讚誉。一针见血的men’s talk,垃圾话无下限,保证让男性观众看了会心大笑,贱有戚戚焉。

6 h! C  P, O. A; ]0 S
; B- g7 r2 f$ P7 i9 Q  h; u
9 O0 Z- M& q! o8 n
影片参数
% }9 z: u1 B% J
婊兄弟上路(台) / 跨年之恋 / Wspinaczka/爬坡人生4K.The.Climb.2019.2160p.BCORE.WEB-DL.x265.10bit.HDR.DTS-HD.MA.5.1-4k电影信息
+ n9 G3 B; e: i# J0 A: ^6 oVideo! v* w' i5 C+ |! [& \
ID : 1. [4 q3 M+ j0 |  c' b
Format : HEVC( [5 T: U& L9 E8 x9 N
Format/Info : High Efficiency Video Coding
4 v  k) y9 k& O8 c9 U  ^* O3 _$ MFormat profile : Main 10@L5.2@High2 s2 d4 u  `! |2 J
HDR format : SMPTE ST 2086, HDR10 compatible
! ~8 l8 q# d) }- M) w7 iCodec ID : V_MPEGH/ISO/HEVC
: c* k6 R) r& [, ?0 T; w" Z$ aDuration : 1 h 37 min
- ^& x) l- y1 B( [" hBit rate : 76.1 Mb/s. C* S* d8 ]$ x) a; O0 L" C. a' G
Width : 3 840 pixels/ K, c; |& F$ x3 u
Height : 2 160 pixels' ?- {2 W# }) P
Display aspect ratio : 16:9* ^  V# B, L. ?4 M7 ?8 ~
Frame rate mode : Constant4 i* U' V; [- A- i6 g; ?  k
Frame rate : 23.976 (24000/1001) FPS
: J* S% p6 S" G  Q. xColor space : YUV, f7 |1 J# l7 B6 T% `3 d
Chroma subsampling : 4:2:0 (Type 2)  h1 f7 \4 _; B7 Z0 x
Bit depth : 10 bits
& E) _6 y2 ~+ \& Z4 J' ^Bits/(Pixel*Frame) : 0.383& U) h/ N* L; B9 t5 O8 K( [3 D
Stream size : 52.0 GiB (95%)+ S3 Q& v7 |- D% G$ S6 {( x! o
Language : English4 {' [8 h9 f7 I& b( ]0 S
Default : Yes+ X( V9 Q! x+ G6 f& }
Forced : No
' ?6 Z4 |+ v0 I6 FColor range : Limited, Q! j' l: ]; e' w' `* \4 b4 q7 |
Color primaries : BT.2020) [8 R. _" ~* u2 M( g$ M$ `) x6 z
Transfer characteristics : PQ
0 d! C; b0 d: ~; h+ l& W4 e# PMatrix coefficients : BT.2020 non-constant8 L0 e& U- V- q2 X
Mastering display color primaries : BT.20209 Q6 I2 q. I% }  d/ i9 h8 T. e
Mastering display luminance : min: 0.0050 cd/m2, max: 1000 cd/m2+ J, |' h# E8 R( \
Maximum Content Light Level : 997 cd/m2& K1 A* S2 B, a+ d8 h1 |( [) K: v
Maximum Frame-Average Light Level : 76 cd/m2
8 F" G2 g/ K+ e, k' I' H
4 h! D" u2 ?- |& h" d! b$ Y/ w6 s
% V; \5 }# p; r5 I9 R% ^
Audio #1  ]* |5 ^+ g4 ~* q
ID : 21 L2 ]+ u2 ~! P- ?3 L" [( d& V
Format : DTS XLL
* y. ~% }! w' x* F# aFormat/Info : Digital Theater Systems7 H0 z2 A0 {8 E* I1 W5 d6 `
Commercial name : DTS-HD Master Audio
* \1 p2 D, n# t; s1 _! m) q: Z0 tCodec ID : A_DTS* j# j/ g7 o* \0 g$ e9 w( \3 K
Duration : 1 h 37 min
$ O/ r2 m/ b" I; lBit rate mode : Variable! {' T# [( ]* ~$ |; H" v; P, z9 Y( _
Bit rate : 3 533 kb/s& ^9 q% n% ~9 A( _' ]3 U; n2 O
Channel(s) : 6 channels
4 `% a- S" y" uChannel layout : C L R Ls Rs LFE1 H8 I$ x9 H9 a$ y
Sampling rate : 48.0 kHz' m; E2 o# U! h* k" R9 ^% G
Frame rate : 93.750 FPS (512 SPF)
, e# G/ w  E8 N0 E. qBit depth : 24 bits
. c, j( ^. a$ n: dCompression mode : Lossless7 c3 n1 E4 K) l- D% _8 P& i* O
Delay relative to video : 1 s 0 ms
% t' v) E/ t; H; ~. w" yStream size : 2.41 GiB (4%)( x1 {3 E( G0 V- G
Title : DTS-HD MA 5.1
, T" t- ~+ ?6 lLanguage : English
$ l: n$ Z* L* Z4 U: wDefault : Yes
6 _3 }( l! T2 O5 i9 c: g6 Z% k4 XForced : No2 S3 Y8 Y" E) L  ?% p

. Z+ {  E8 u: E+ B" @+ n
7 m& f2 K7 B  P( W
Audio #2
1 `' |; e( N% Z3 J$ D* [: L1 |ID : 3# J  s/ c% _( G. l# P, h
Format : E-AC-3
# G* m$ E3 X0 I# X! \! E7 OFormat/Info : Enhanced AC-3# k5 Z8 ~0 q1 r) }/ l* G& z4 u. n
Commercial name : Dolby Digital Plus9 i& P* M/ V- K7 x, k6 x
Codec ID : A_EAC35 s1 r) y2 p6 e/ z+ w& E
Duration : 1 h 37 min1 y2 `9 Y8 ^1 e8 [
Bit rate mode : Constant& t. F# B: V) L3 n1 M
Bit rate : 384 kb/s0 [6 w! l5 W: n
Channel(s) : 6 channels
; L1 \( X: _% y, R7 @0 }9 v: JChannel layout : L R C LFE Ls Rs
+ @/ p6 b1 ]+ d2 F0 i- d9 ySampling rate : 48.0 kHz
# d, U3 ^; m2 a! DFrame rate : 31.250 FPS (1536 SPF)
0 P5 q  k3 W3 C1 }. F, Q- Y( z0 wCompression mode : Lossy
2 X) V/ G- |% D- q/ ~8 W' J% iStream size : 269 MiB (0%)3 n1 ]' P2 O$ s# j+ F8 L
Language : English
- T; D& B/ P: T0 N# Y4 VService kind : Complete Main  u1 ?4 @$ X: G# a  C& p  |" w
Default : No
+ Q. Q! j# x6 I& FForced : No

; o% O3 ^+ N" L4 c# N0 U. ~1 z3 ]# Y; A% Q4 @# D
蓝光高清网提示您  点击下方附件名称  马上开始下载: R2 [, a7 ?5 I. T% c' W) _

, S8 h2 x  I- J; s
# H' ]* l. z# U4 t+ W( f
婊兄弟上路(台) / 跨年之恋 / Wspinaczka/爬坡人生4K.The.Climb.2019.2160p.BCORE.WEB-DL.x265.10bit.HDR.DTS-HD.MA.5.1-4K电影下载7 T! V* m( w4 F& d& S0 s) S/ x

8 t: v! ^6 K2 ^爬坡人生4K.The.Climb.2019.2160p.BCORE.WEB-DL.x265.10bit.HDR.DTS-HD.MA.5.1【4K HDR 54.66 GB】
& g3 L; n% u8 ^1 s$ Y) w+ o8 g 爬坡人生4K.The.Climb.2019.2160p.BCORE.WEB-DL.x265.10bit.HDR.DTS-HD.MA.5.1.torrent (文件大小:137.28 KB)
加入蓝光高清网VIP会员  无限制下载本站所有资源---点这里

资源下载、资源播放、字幕使用、无法下载等常见问题---点这里
回复

使用道具 举报

精彩评论3

ggang1 发表于 2021-6-21 09:35:40 | 显示全部楼层
感谢分享,资源不错
回复 支持 反对

使用道具 举报

宋诗阳手机认证 发表于 2021-6-24 08:25:10 来自手机 | 显示全部楼层
谢谢楼主分享
回复 支持 反对

使用道具 举报

ggang1 发表于 2021-6-24 09:34:11 | 显示全部楼层
感谢楼主分享
回复 支持 反对

使用道具 举报

您需要登录后才可以回帖 登录 | 立即注册

本版积分规则

烧友之家(蓝光高清网)本站内容部分由用户自主分享和转载自互联网,转载目的在于传递更多信息,并不代表本网赞同其观点和对其真实性负责。 如有侵权、违反国家法律政策行为,请联系我们,我们会第一时间及时清除和处理!
蓝光高清网 综合资讯平台
关注我们
  • 官方微信公众号
  • 扫码下载官方APP

X3.4 Licensed© 2001-2013 蓝光高清网 烧友之家APP |网站地图