游客您好
第三方账号登陆
  • 点击联系客服

    在线时间:9:00-18:00

    客服QQ

    1371333023

    电子邮件

    lanniao@1080pro.net
  • 烧友之家APP

    随时掌握烧友资讯

  • 扫描二维码

    关注微信公众号

推荐阅读
蓝鸟
未知星球 | 未知职业
  • 关注0
  • 粉丝2
  • 帖子94272
精选帖子
开启左侧

[4K高清美剧] 同妻俱乐部 第一季4k Grace.And.Frankie.S01.2160p.NF.WEBRip.DD5.1.x264美剧下载—85.41 GB

[复制链接]
蓝鸟 发表于 2021-6-22 09:13:59 | 显示全部楼层 |阅读模式 打印 上一主题 下一主题
同妻俱乐部

状态:第一季(完结)
上映时间:2015-05-08
类型:喜剧 
地区:美国
导演:泰特·泰勒 / 米盖尔·阿尔特塔 / 安德鲁·麦卡锡 编剧: 玛尔塔·考夫曼 / 霍华德·J·莫里斯
主演:简·方达 / 莉莉·汤姆林 / 马丁·辛 / 萨姆·沃特森 / 蒂莫西·V·墨菲
画质标准:4K(3840x2160) 封装音轨:MKV 音轨编码:其他DD
豆瓣评分:8.3分

加入蓝光高清网,轻松下载最新4k资源

您需要 登录 才可以下载或查看,没有帐号?立即注册

x
影片参数
格蕾丝与弗兰基/同妻俱乐部 第一季4k Grace.And.Frankie.S01.2160p.NF.WEBRip.DD5.1.x264美剧信息
Video
ID : 1
Format : AVC
Format/Info : Advanced Video Codec
Format profile : High@L5.1
Format settings : CABAC / 5 Ref Frames
Format settings, CABAC : Yes
Format settings, Reference frames : 5 frames
Codec ID : V_MPEG4/ISO/AVC
Duration : 35 min 16 s
Bit rate : 34.5 Mb/s
Width : 3 840 pixels
Height : 2 024 pixels
Display aspect ratio : 1.897
Frame rate mode : Constant
Frame rate : 23.976 (24000/1001) FPS
Color space : YUV
Chroma subsampling : 4:2:0
Bit depth : 8 bits
Scan type : Progressive
Bits/(Pixel*Frame) : 0.185
Stream size : 8.50 GiB (98%)
Writing library : x264 core 148 r2638 7599210
Encoding settings : cabac=1 / ref=5 / deblock=1:-2:-2 / analyse=0x3:0x133 / me=umh / subme=10 / psy=1 / psy_rd=1.00:0.15 / mixed_ref=1 / me_range=48 / chroma_me=1 / trellis=2 / 8x8dct=1 / cqm=0 / deadzone=21,11 / fast_pskip=1 / chroma_qp_offset=-3 / threads=12 / lookahead_threads=2 / sliced_threads=0 / nr=0 / decimate=0 / interlaced=0 / bluray_compat=0 / constrained_intra=0 / bframes=8 / b_pyramid=2 / b_adapt=2 / b_bias=0 / direct=3 / weightb=1 / open_gop=0 / weightp=2 / keyint=240 / keyint_min=23 / scenecut=40 / intra_refresh=0 / rc_lookahead=60 / rc=crf / mbtree=1 / crf=18.0 / qcomp=0.70 / qpmin=0 / qpmax=69 / qpstep=4 / vbv_maxrate=300000 / vbv_bufsize=300000 / crf_max=0.0 / nal_hrd=none / filler=0 / ip_ratio=1.30 / aq=1:0.90
Default : Yes
Forced : No


Audio
ID : 2
Format : AC-3
Format/Info : Audio Coding 3
Commercial name : Dolby Digital
Codec ID : A_AC3
Duration : 35 min 14 s
Bit rate mode : Constant
Bit rate : 640 kb/s
Channel(s) : 6 channels
Channel layout : L R C LFE Ls Rs
Sampling rate : 48.0 kHz
Frame rate : 31.250 FPS (1536 SPF)
Compression mode : Lossy
Stream size : 161 MiB (2%)
Language : English
Service kind : Complete Main
Default : Yes
Forced : No


蓝光高清蓝光高清网提示您  点击下方附件名称  马上开始下载


格蕾丝与弗兰基/同妻俱乐部 第一季4k Grace.And.Frankie.S01.2160p.NF.WEBRip.DD5.1.x264美剧下载


同妻俱乐部 第一季4k Grace.And.Frankie.S01.2160p.NF.WEBRip.DD5.1.x264【85.41GB】

同妻俱乐部 第一季4k Grace.And.Frankie.S01.2160p.NF.WEBRip.DD5.1.x264-Trol.torrent (文件大小:215.31 KB)
加入蓝光高清网VIP会员  无限制下载本站所有资源---点这里

资源下载、资源播放、字幕使用、无法下载等常见问题---点这里
回复

使用道具 举报

精彩评论3

ggang1 发表于 2021-6-22 12:18:20 | 显示全部楼层

感谢楼主分享
回复 支持 反对

使用道具 举报

mx-e手机认证 发表于 2021-6-23 03:46:40 | 显示全部楼层
感谢楼主分享高清资源
回复 支持 反对

使用道具 举报

4kpropWy9MS9n手机认证 发表于 2021-6-28 21:06:35 来自手机 | 显示全部楼层
谢谢楼主分享
回复 支持 反对

使用道具 举报

您需要登录后才可以回帖 登录 | 立即注册

本版积分规则

烧友之家(蓝光高清网)本站内容部分由用户自主分享和转载自互联网,转载目的在于传递更多信息,并不代表本网赞同其观点和对其真实性负责。 如有侵权、违反国家法律政策行为,请联系我们,我们会第一时间及时清除和处理!
蓝光高清网 综合资讯平台
关注我们
  • 官方微信公众号
  • 扫码下载官方APP

X3.4 Licensed© 2001-2013 蓝光高清网 烧友之家APP |网站地图