[恐怖] 魔鬼双瞳/双凶眼 Two.Evil.Eyes.1990.1080p.BluRay.x264.DD2.0-FGT 6.24GB

[复制链接]
蓝鸟VIP会员 永久VIP 发表于 2019-8-22 01:05:49 | 显示全部楼层 |阅读模式 打印 上一主题 下一主题

马上注册,轻松下载,海量资源,让你轻松玩转社区。

您需要 登录 才可以下载或查看,没有帐号?立即注册

x

?
◎译  名 魔鬼双瞳/双凶眼
◎片  名 Two Evil Eyes
◎年  代 1990
◎国  家 意大利/美国
◎类  别 奇幻/恐怖/悬疑/惊悚
◎语  言 英语
◎上映日期 1990-01-25
◎IMDb评分  6.1/10 from 3,849 users
◎IMDb链接  http://www.imdb.com/title/tt0100827/
◎豆瓣评分 6.5/10 from 318 users
◎豆瓣链接 http://movie.douban.com/subject/1841529/
◎片  长 120 分钟
◎导  演 乔治·A·罗梅罗 George A. Romero / 达里欧·阿基多 Dario Argento
◎主  演 阿德里安娜·巴比欧 Adrienne Barbeau
      Ramy Zada
      Bingo O Malley
      E.G.马绍尔 E.G. Marshall
      哈威·凯特尔 Harvey Keitel
      约翰·阿莫斯 John Amos
      莎莉·柯克兰德 Sally Kirkland
      金·亨特 Kim Hunter
      霍尔特·格拉汉姆 Holter Graham
      马丁·鲍尔萨姆 Martin Balsam
      Jonathan Adams
      Tom Atkins
◎简  介
  影片分为两个故事,全部根据爱伦?坡的小说改编。
  杰西卡(Adrienne Barbeau 饰)的丈夫厄尼斯特(Bingo O Malley 饰)病入膏肓,精神病医生罗伯特(Ramy Zada 饰)与杰西卡有染。两人合伙撺掇厄尼斯特将数百万遗产留给妻子。这对男女最终如愿以偿,但愤怒的厄尼斯特再度复活,势要复仇……
  摄影师罗德(Harvey Keitel 饰)的女友安娜贝尔(Madeleine Potter 饰)带回一只流浪的黑猫。黑猫的叫声让本就烦躁不已的罗德难以忍受。他一气之下杀死黑猫,却不曾想从此走入黑暗恐怖的噩梦之中……
Video
ID                                       : 1
Format                                   : AVC
Format/Info                              : Advanced Video Codec
Format profile                           : [email protected]
Format settings, CABAC                   : Yes
Format settings, ReFrames                : 4 frames
Codec ID                                 : V_MPEG4/ISO/AVC
Duration                                 : 1h 59mn
Bit rate                                 : 7 063 Kbps
Width                                    : 1 920 pixels
Height                                   : 1 080 pixels
Display aspect ratio                     : 16:9
Frame rate mode                          : Constant
Frame rate                               : 23.976 fps
Color space                              : YUV
Chroma subsampling                       : 4:2:0
Bit depth                                : 8 bits
Scan type                                : Progressive
Bits/(Pixel*Frame)                       : 0.142
Stream size                              : 5.79 GiB (93%)
Writing library                          : x264 core 146 r2538 121396c
Encoding settings                        : cabac=1 / ref=4 / deblock=1:-3:-3 / analyse=0x3:0x113 / me=umh / subme=7 / psy=1 / psy_rd=1.00:0.15 / mixed_ref=1 / me_range=16 / chroma_me=1 / trellis=1 / 8x8dct=1 / cqm=0 / deadzone=21,11 / fast_pskip=0 / chroma_qp_offset=-3 / threads=10 / lookahead_threads=1 / sliced_threads=0 / nr=0 / decimate=1 / interlaced=0 / bluray_compat=0 / constrained_intra=0 / bframes=3 / b_pyramid=2 / b_adapt=1 / b_bias=0 / direct=3 / weightb=1 / open_gop=0 / weightp=2 / keyint=250 / keyint_min=23 / scenecut=40 / intra_refresh=0 / rc_lookahead=40 / rc=2pass / mbtree=1 / bitrate=7063 / ratetol=1.0 / qcomp=0.60 / qpmin=0 / qpmax=69 / qpstep=4 / cplxblur=20.0 / qblur=0.5 / ip_ratio=1.40 / aq=1:1.00
Language                                 : English
Default                                  : Yes
Forced                                   : No
Audio
ID                                       : 2
Format                                   : AC-3
Format/Info                              : Audio Coding 3
Mode extension                           : CM (complete main)
Format settings, Endianness              : Big
Codec ID                                 : A_AC3
Duration                                 : 1h 59mn
Bit rate mode                            : Constant
Bit rate                                 : 384 Kbps
Channel(s)                               : 2 channels
Channel positions                        : Front: L R
Sampling rate                            : 48.0 KHz
Bit depth                                : 16 bits
Compression mode                         : Lossy
Stream size                              : 329 MiB (5%)
Language                                 : English
Default                                  : Yes
Forced                                   : No

精彩剧照


                                       

蓝光高清网提示您 点击下方附件名称 马上开始下载



温馨提示:
本站资源优先使用迅雷下载,迅雷会员下载,速度基本可以跑满宽带
如果遇到无资源或者版权问题无法下载,推荐使用115网盘离线下载(点击查看115网盘离线下载教程


  • 该资源需要您回复以后 刷新网页进行下载操作

  • 1、Two.Evil.Eyes.1990.1080p.BluRay.x264.DD2.0-FGT.torrent 63KB 已下载 0 次

加入蓝光高清网VIP会员  无限制下载本站所有资源---点此加入

资源下载、资源播放、字幕使用、无法下载等常见问题---点这里

回复

使用道具 举报

懒得打字嘛,点击右侧快捷回复
高级模式
B Color Image Link Quote Code Smilies 上传

本版积分规则

关注0

粉丝0

帖子69282

发布主题
最新电影 论坛
广告位
联系我们
点击这里联系客服

服务时间:
周一到周日8:00-23:30

  • 打开微信扫一扫
    关注公众号

  • 手机QQ扫一扫
    添加客服

Archiver手机版蓝光高清网 ( 渝ICP备18006373号-2 )|网站地图

Powered by Discuz! X3.4  © 2001-2013 Comsenz Inc.