游客您好
第三方账号登陆
  • 点击联系客服

    在线时间:9:00-18:00

    客服QQ

    1371333023

    电子邮件

    lanniao@1080pro.net
  • 烧友之家APP

    随时掌握烧友资讯

  • 扫描二维码

    关注微信公众号

推荐阅读
蓝鸟
未知星球 | 未知职业
  • 关注0
  • 粉丝2
  • 帖子94272
精选帖子
开启左侧

蝙蝠侠:漫长的万圣节 4k Batman.the.Long.Halloween.Part.One.2021.2160p.WEB-DL.x265.10bit.HDR.DTS-HD.MA.5.1电影下载—10.74 GB

[复制链接]
蓝鸟 发表于 2021-6-24 10:30:49 | 显示全部楼层 |阅读模式 打印 上一主题 下一主题
蝙蝠侠:漫长的万圣节
上映时间:2021年
类型:动作 恐怖 科幻 犯罪 动画 悬疑 
地区:美国 
导演:克里斯·帕尔默
主演:詹森·阿克斯 / 特罗伊·贝克 / 大卫·达斯马齐连 / 杰克·奎德 / 乔什·杜哈明
画质标准:4K HDR  封装音轨:DTS-HD.MA 5.1 
豆瓣评分:7.6分

加入蓝光高清网,轻松下载最新4k资源

您需要 登录 才可以下载或查看,没有帐号?立即注册

x
简       介  H( P% `. ?1 C

4 K1 d2 \, Y$ K+ j, k3 N
9 ]7 h4 ^2 ^: {/ M2 x" p
  The long-rumored Batman: The Long Halloween animated movie is finally a reality. It will be released as a two-part movie with the first part arriving in Summer 2021 and part two will arrive in Fall 2021.
0 L* D8 M! ]: ^" v4 A, D: Y1 o0 q4 T: k

$ Z- a, B" a$ C% g7 J影片参数; x, S/ `% m3 q
蝙蝠侠:漫长的万圣节4k Batman.the.Long.Halloween.Part.One.2021.2160p.WEB-DL.x265.10bit.HDR.DTS-HD.MA.5.1电影信息7 H) R1 u. B7 r/ m: n% j3 F! x; x" ~
Video
+ H; J( }9 j" i5 A3 g( P( r. @: KID : 1/ c: t" C+ X- a/ I/ i
Format : HEVC
5 Y& y  _" Z) ^1 S' }2 l  F7 ~Format/Info : High Efficiency Video Coding
3 Z/ `/ L9 a2 x+ ^; F* F) CFormat profile : Main 10@L5@High1 H4 k6 e1 S. H4 W  K: T0 M7 l
HDR format : SMPTE ST 2086, HDR10 compatible( b6 \& [2 X, ^0 s# N  q. q
Codec ID : V_MPEGH/ISO/HEVC
% K+ T) ^; o4 H6 V6 q. l3 x- [Duration : 1 h 25 min
1 n9 J7 |, w# w* e: \# c1 WBit rate : 14.6 Mb/s2 c0 l3 Z& z/ M9 u7 Y% j
Width : 3 840 pixels% |& Z* y! `- M0 H' a
Height : 2 160 pixels
3 F9 x6 \0 Z% t  c7 HDisplay aspect ratio : 16:9' B! v: [9 U( E1 U7 b$ E! D, e- u* ]
Frame rate mode : Constant
' j+ T4 X4 z% a( S6 i4 E4 f; \: |; @Frame rate : 23.976 FPS
  o1 |2 ^: l+ x5 S3 rColor space : YUV- {/ X0 k! b. a/ k  i1 K3 M
Chroma subsampling : 4:2:0 (Type 2)
) b" F* g' d4 H0 Y+ s* Z: BBit depth : 10 bits
$ T3 M7 H( k5 Q) e7 FBits/(Pixel*Frame) : 0.074+ `+ n' W: E5 Z2 @. u1 Z! U
Stream size : 8.73 GiB (81%)6 \; q3 h. f2 k% B. }/ D
Default : Yes( y5 T7 T9 M$ ^: q3 F
Forced : No
% Z. z+ ~. i" ^$ m/ mColor range : Limited" S5 ~4 p% e* d: j! I
Color primaries : BT.2020* o/ S+ o- q# y7 \
Transfer characteristics : PQ6 G, N8 O- q+ k: N2 ]
Matrix coefficients : BT.2020 non-constant
- y+ M3 i3 u' ]" _( B, SMastering display color primaries : BT.2020
3 C/ V; z1 |+ W" c* d" b# sMastering display luminance : min: 0.0050 cd/m2, max: 1000 cd/m2
* D  S  K+ q, B6 V) ZMaximum Content Light Level : 403 cd/m2+ S2 s5 v# U9 o3 x" N
Maximum Frame-Average Light Level : 370 cd/m2
! n6 O; Z+ I7 z! n7 {: r" k) s$ j  n0 N

& Q8 l; t+ S- MAudio #1
' @) v9 g" e0 `$ w4 c* EID : 2
+ C7 d  q9 E$ ]% v# [2 W: pID in the original source medium : 4352 (0x1100)/ L. C" I* Y1 C$ L3 k* c- P+ k: |) N9 E
Format : DTS XLL5 f" }( b+ J  ^3 m# ?' u
Format/Info : Digital Theater Systems
, r# O3 ?, C+ n# p% u0 ?; A( ACommercial name : DTS-HD Master Audio7 |" s# U; T$ `1 g3 N# h1 f' y9 a
Codec ID : A_DTS
0 \" U' E1 o+ E7 P( K3 ZDuration : 1 h 25 min  {8 Y0 m5 S6 u0 D6 Z  _1 y- G" K
Bit rate mode : Variable
( V6 ]6 Q# \# j; H9 p; K& JBit rate : 2 975 kb/s
0 U5 L: N# k% U, e- EChannel(s) : 6 channels
  \" A: A$ @' O6 p9 T7 x( R# RChannel layout : C L R Ls Rs LFE8 R1 d: b: ], E5 l9 L) @2 T
Sampling rate : 48.0 kHz
& M! a  B6 d2 a1 Y- k& r& R4 xFrame rate : 93.750 FPS (512 SPF)* i+ V, A& h9 e# R! \
Bit depth : 24 bits( ~( p# }. ], F3 |" J+ |
Compression mode : Lossless- |# B- X' t1 o7 ]
Stream size : 1.78 GiB (17%)
- X: `) j) g& }; S1 C$ Q2 j8 x$ p' k" yTitle : DTS-HD MA 5.1" @/ U3 z) ~2 h- M9 n
Language : English
. y( u6 Z8 O" ^5 e& c5 E# jDefault : Yes( O& K0 ?' h) x9 Q
Forced : No# M0 w  S+ q- b- G
Original source medium : Blu-ray# S6 @; E1 I" z3 {

# A* ^, s- l1 U1 K7 D: t$ h
; M: s/ I+ u8 E+ m3 `1 T: i: V) `
Audio #2- r7 u1 q* y4 \5 y4 I, K' K, b
ID : 3+ s- V% g0 \! T& Y
Format : AC-3
, u- W  c$ Z0 }+ lFormat/Info : Audio Coding 34 l0 [4 V: K8 u6 k  ^. v
Commercial name : Dolby Digital$ C5 i9 M1 e* l0 ~) q( @
Codec ID : A_AC3
$ |6 O  y0 P* G! IDuration : 1 h 25 min4 _+ U$ z6 F+ A, T
Bit rate mode : Constant
0 F; _0 Y% Y7 s8 pBit rate : 384 kb/s& E  Q2 h- t& ~% s
Channel(s) : 6 channels
$ ]5 f& _; |/ W' Z; W/ cChannel layout : L R C LFE Ls Rs. j' A9 q5 j. |% w
Sampling rate : 48.0 kHz
9 ?  P7 [7 J; Z$ D6 ]+ UFrame rate : 31.250 FPS (1536 SPF)
- Y3 J2 H" k$ K, A% w: KCompression mode : Lossy, \' S  Z: Z  K, ?& ?
Stream size : 235 MiB (2%)
# P5 }% s& W3 D$ J! |. sTitle : DD 5.1
0 J) M# |9 p0 Q3 ]2 z- `: D% fLanguage : English
- u1 F$ Z" ^2 b) vService kind : Complete Main
* _7 U: ~; C. X' \Default : No; a- y+ l2 B& @
Forced : No

8 N0 p- T" F' r  A* c0 f6 n5 h" e2 |' o& y( {
蓝光高清网提示您  点击下方附件名称即可开始下载
7 J+ e8 T/ _1 C, k& |# w
7 L5 i1 n4 P3 t+ `6 L

7 m2 u7 C- g" T* B* p* g# D蝙蝠侠:漫长的万圣节4k Batman.the.Long.Halloween.Part.One.2021.2160p.WEB-DL.x265.10bit.HDR.DTS-HD.MA.5.1电影下载
5 C" [8 ]$ i4 e5 a% t: m( j$ j
" x  m5 k) O0 I7 O5 y

8 U$ ~( Y, v  c0 G4 t6 y9 z7 _" x蝙蝠侠:漫长的万圣节 4k Batman.the.Long.Halloween.Part.One.2021.2160p.WEB-DL.x265.10bit.HDR.DTS-HD.MA.5.1电影下载—10.74 GB
+ Y1 z% q0 o  e+ ^. A$ \ 蝙蝠侠:漫长的万圣节4k Batman.the.Long.Halloween.Part.One.2021.2160p.WEB-.torrent (文件大小:54.4 KB)
加入蓝光高清网VIP会员  无限制下载本站所有资源---点这里

资源下载、资源播放、字幕使用、无法下载等常见问题---点这里
回复

使用道具 举报

精彩评论2

宋诗阳手机认证 发表于 2021-6-24 12:06:15 来自手机 | 显示全部楼层
谢谢楼主的分享
回复 支持 反对

使用道具 举报

kmt 发表于 2021-6-26 08:57:10 | 显示全部楼层
谢谢楼主分享。
2 s6 I( N) V+ d& r: H% Y; }, u% W
回复 支持 反对

使用道具 举报

您需要登录后才可以回帖 登录 | 立即注册

本版积分规则

烧友之家(蓝光高清网)本站内容部分由用户自主分享和转载自互联网,转载目的在于传递更多信息,并不代表本网赞同其观点和对其真实性负责。 如有侵权、违反国家法律政策行为,请联系我们,我们会第一时间及时清除和处理!
蓝光高清网 综合资讯平台
关注我们
  • 官方微信公众号
  • 扫码下载官方APP

X3.4 Licensed© 2001-2013 蓝光高清网 烧友之家APP |网站地图