游客您好
第三方账号登陆
  • 点击联系客服

    在线时间:9:00-18:00

    客服QQ

    1371333023

    电子邮件

    lanniao@1080pro.net
  • 烧友之家APP

    随时掌握烧友资讯

  • 扫描二维码

    关注微信公众号

推荐阅读
蓝鸟
未知星球 | 未知职业
  • 关注0
  • 粉丝2
  • 帖子94262
精选帖子
开启左侧

证人 4k Witness.1985.2160p.WEB-DL.x265.10bit.HDR.DTS-HD.MA.TrueHD.5.1-4k电影下载—25.42 GB

[复制链接]
蓝鸟 发表于 2021-6-25 09:13:19 | 显示全部楼层 |阅读模式 打印 上一主题 下一主题
证人
上映时间:更早
类型:剧情 爱情 惊悚 
地区:美国 
导演:彼得·威尔
主演:哈里森·福特 / 凯莉·麦吉利斯 / 约瑟夫·索默 / 卢卡斯·哈斯 / 扬·鲁布斯
画质标准:4K HDR  封装音轨:Dolby TrueHD 5.1 Dolby Atmos 
豆瓣评分:7.2分

加入蓝光高清网,轻松下载最新4k资源

您需要 登录 才可以下载或查看,没有帐号?立即注册

x
简       介4 _0 ~( V9 T  t9 |: t( Y

9 t( E8 c9 o5 d2 G
& u( f' W1 Y6 `. L4 {* i
  因为目睹了一场谋杀案,瑞秋(凯莉·麦吉利斯 Kelly McGillis 饰)和儿子山姆(卢卡斯·哈斯 Lukas Haas 饰)的平静生活被彻底打破。接到报案的约翰警长(哈里森·福特 Harrison Ford 饰)匆匆赶来,没想到被指认的凶手不是别人,正是同为警探的迈克菲(丹尼·格洛弗 Danny Glover 饰)。约翰将这一消息报告给了上司保罗(约瑟夫·索默 Josef Sommer 饰),没想到保罗和迈克菲之间有着邪恶而非法的关联。
4 E/ E6 Z2 F7 l7 a  得知真相的约翰遭到了迈克菲的诛杀,身受重伤的他被瑞秋带到了阿门部落疗养。在疗养的日子里,约翰和瑞秋之间产生了奇妙的化学反应,同时,约翰也逐渐习惯了在阿门部落里的生活。好景不长,保罗最终发现了约翰的行踪,为了守住自己肮脏的秘密,他誓要将约翰置于死地。
! O3 W; P" n4 Q* G# Q

3 G/ Z4 e7 o; @

0 B8 Y- `* p% D0 N& w; U) u影片参数: O1 d7 u& |; }4 G# }, a; y. I
目击者 / 灭口大追杀/证人4k Witness.1985.2160p.WEB-DL.x265.10bit.HDR.DTS-HD.MA.TrueHD.5.1-4k电影信息
% k6 ]1 S. n6 |9 L$ L0 u$ L7 F9 C% SVideo
, H7 v- m9 l  ~/ RID : 10 ~! I/ G. i) ?& y: _4 T! H0 C
Format : HEVC
8 K4 ]2 D; Q  JFormat/Info : High Efficiency Video Coding, Q! U8 |* o9 i- x
Format profile : Main 10@L5@High
$ o& T7 Z- ?; a  Y! h1 n1 CHDR format : SMPTE ST 2086, HDR10 compatible
$ i* d% z1 f2 p, x; gCodec ID : V_MPEGH/ISO/HEVC
- ~8 q% D, o7 l4 F% i' Y; F7 lDuration : 1 h 52 min
/ I. l4 e$ y& `3 hBit rate : 24.7 Mb/s
" N7 {& {8 Q8 OWidth : 3 840 pixels- ~0 U- Y, ], A, Z6 n' U
Height : 2 076 pixels2 D' w4 H. [$ ?& m6 c4 s7 t, N4 b
Display aspect ratio : 1.85:1
& |5 p5 o7 A0 ?# v/ c& F# |' O! BFrame rate mode : Constant; n; X+ D! i9 E/ h8 O, |* U
Frame rate : 23.976 FPS
, A0 E+ V( c9 H" ~+ }+ L+ W  l( YColor space : YUV6 f7 k3 \9 }5 _, c- G3 O; t
Chroma subsampling : 4:2:0 (Type 2)( B6 H) w7 B4 }1 P- |8 m
Bit depth : 10 bits
! z! ]! K0 U7 ]* IBits/(Pixel*Frame) : 0.1293 ~" q- d$ p* h
Stream size : 19.4 GiB (77%)
! F  y5 k, ?% h2 |+ h8 E" E! HDefault : Yes/ `1 j, R3 {6 a! P; p8 `" b# m
Forced : No
0 B4 ]0 i9 B3 _9 q; E$ E6 @* H  G: {Color range : Limited
2 X! A6 z5 M, z/ P* f5 |6 hColor primaries : BT.2020
5 U7 O4 l" r4 S- l; rTransfer characteristics : PQ8 p- z8 c# x$ u
Matrix coefficients : BT.2020 non-constant
0 U& ?/ m( a5 u, d, ]+ sMastering display color primaries : Display P3
% ?4 P2 e: h" OMastering display luminance : min: 0.0050 cd/m2, max: 1000 cd/m2
* C/ S3 P2 q0 `2 EMaximum Content Light Level : 3934 cd/m29 h, Y% t, q1 ^/ K
Maximum Frame-Average Light Level : 574 cd/m2
! _+ n, r! R. c7 z; ~% T( F) t' P0 P2 i% A& @7 b

7 u5 |6 ]5 ]! v# E' z/ @Audio #1
" D0 N+ R% ]" Z- D9 A3 ?ID : 2- n, O  c+ [( d" U# |
ID in the original source medium : 4352 (0x1100)( |1 d  y- ~/ Z' \: }
Format : MLP FBA
& _: w5 |- ^2 n0 A0 j3 t. UFormat/Info : Meridian Lossless Packing FBA
, Y8 H$ d+ b3 Y  V2 {Commercial name : Dolby TrueHD6 M4 R* h0 [9 W0 h2 X
Codec ID : A_TRUEHD
: ]9 h1 A& v1 }) l, R  {  ], E1 NDuration : 1 h 52 min
" u* g) C# x9 }Bit rate mode : Variable1 a8 Y, }, T7 J1 T
Bit rate : 2 832 kb/s, D7 N7 u# g+ d+ j1 b
Maximum bit rate : 4 608 kb/s, ?' S" Z  d: L; l" }
Channel(s) : 6 channels5 ]; {7 n5 E0 {; X& t
Channel layout : L R C LFE Ls Rs
  Y7 e! d8 {! [: J" Q/ iSampling rate : 48.0 kHz2 @) C, D- d. r6 e1 W
Frame rate : 1 200.000 FPS (40 SPF)1 g$ e' ^& y' G) Z/ j
Bit depth : 24 bits
5 }6 j2 V1 C2 YCompression mode : Lossless6 q: u( l% d% V# t* j. C! J4 p
Stream size : 2.22 GiB (9%)
' b1 ^9 m1 r' E6 @: a" k1 eTitle : TrueHD 5.1
) ^! _: ]0 B, bLanguage : English9 Y  T1 k8 p* q) q
Default : Yes
) {5 C1 p  i' D' O, yForced : No) n. E' }0 I$ X7 ]
Original source medium : Blu-ray
7 S6 R8 F* Z* V
- J8 e8 [) v( \, I& G$ x- Q

3 y1 G& T, J  l% \3 o1 O7 AAudio #2# U* L; U, P/ Q* P- J0 ?
ID : 3
& v; ~0 F) w; r5 [/ Z  J* }0 C( z' XFormat : DTS XLL
! |# t2 _/ V* Y, {; zFormat/Info : Digital Theater Systems
# h* k0 h4 F( e2 Y1 ^( ICommercial name : DTS-HD Master Audio/ R4 `" O0 e0 t5 c
Codec ID : A_DTS
, |0 d' r2 \9 VDuration : 1 h 52 min* K5 r- o# U: T: L" f
Bit rate mode : Variable7 H( h6 x2 V/ q1 z
Bit rate : 3 504 kb/s
7 o$ J! L' e* E$ LChannel(s) : 6 channels$ h# f# ~" H' Y4 y7 f. \5 c
Channel layout : C L R Ls Rs LFE9 R  d) h; Y/ n; q; X- u; T1 l, o
Sampling rate : 48.0 kHz
7 h6 i3 l* ^3 m6 ^! e8 W1 ]Frame rate : 93.750 FPS (512 SPF)- I, ^; q1 [8 t3 O5 B1 y
Bit depth : 24 bits
8 ^, N  Z+ t4 c8 `( p9 e# YCompression mode : Lossless5 b8 H- l- D$ @
Stream size : 2.75 GiB (11%)
+ M$ _0 p6 z* g* _% b; L* ]9 d* WTitle : DTS-HD MA 5.14 |! A' A- U. b% s) t9 v! |* f
Language : English' n5 r1 |8 U; }% {* [
Default : No$ l4 }; A0 t+ n% B; O( u  ?& x
Forced : No! u) @8 V9 A* P+ u
3 T8 b2 O& P) h# `) l( r' O3 h

; a" v: |5 \' P4 L8 DAudio #3
, R9 O4 K  S: X* OID : 4
4 H% N4 J, J9 a: EID in the original source medium : 4352 (0x1100)  k+ v9 O2 d# `% t2 {2 |1 G
Format : AC-3
3 Z6 K6 I: Y: F' i( IFormat/Info : Audio Coding 35 ?3 T/ E% `& m* m6 U2 a
Commercial name : Dolby Digital- f/ N  |4 z5 ]0 t2 ?- u' C+ Y
Codec ID : A_AC3& ?- ]* R' t7 Z6 R
Duration : 1 h 52 min
: T" Z) Z* L( J8 eBit rate mode : Constant4 x$ T6 R. {- D/ _; ?- j
Bit rate : 640 kb/s
9 e0 \5 }' g/ AChannel(s) : 6 channels/ E9 ~2 ^+ k6 n* }+ h/ e
Channel layout : L R C LFE Ls Rs; `) r1 B, t% q
Sampling rate : 48.0 kHz- C" r3 |$ l! ^7 d6 G3 O+ x
Frame rate : 31.250 FPS (1536 SPF)+ y3 k; ^' k- j; G
Compression mode : Lossy
  V( `3 ?& V) k. {5 T2 G- rStream size : 515 MiB (2%)
8 Q. T, j# T9 z5 e- B1 f/ m- ITitle : DD 5.1
- ~) }5 o) b! h6 V3 H; W8 \- eLanguage : English
5 W# Q- G+ ?& v! R/ D3 DService kind : Complete Main1 E& v( G2 X+ @4 h/ r: m
Default : No
3 Q* x* C) Q* h& n6 w4 J% t. K& I9 PForced : No
* d& o! p5 Y- V& @3 x. G# a/ G1 wOriginal source medium : Blu-ray
- S5 K% d) Y" Y/ y% L7 g- v7 y- E

( j* i+ A+ w7 o, W7 }蓝光高清网提示您  点击下方附件名称  马上开始下载
/ [4 Y' z: c+ T# S0 X+ V3 J$ k$ X. K& A4 j0 i) p

! \; j: [; M! ]0 u* U目击者 / 灭口大追杀/证人4k Witness.1985.2160p.WEB-DL.x265.10bit.HDR.DTS-HD.MA.TrueHD.5.1-4k电影下载
: L3 {$ p) x7 q) z
  h& B' M7 a9 i1 P4 K" x' n证人4k Witness.1985.2160p.WEB-DL.x265.10bit.HDR.DTS-HD.MA.TrueHD.5.1【25.42GB】
7 ~. \' `" C. U2 f5 p4 } 证人4k Witness.1985.2160p.WEB-DL.x265.10bit.HDR.DTS-HD.MA.TrueHD.5.1-SWTY.torrent (文件大小:63.98 KB)
加入蓝光高清网VIP会员  无限制下载本站所有资源---点这里

资源下载、资源播放、字幕使用、无法下载等常见问题---点这里
回复

使用道具 举报

精彩评论2

panghong手机认证 发表于 2021-6-25 16:17:40 | 显示全部楼层

$ u* {3 W4 ?) M谢谢楼主分享
回复 支持 反对

使用道具 举报

liyun80000手机认证 发表于 2021-6-25 20:12:54 | 显示全部楼层
谢谢楼主分享
回复 支持 反对

使用道具 举报

您需要登录后才可以回帖 登录 | 立即注册

本版积分规则

烧友之家(蓝光高清网)本站内容部分由用户自主分享和转载自互联网,转载目的在于传递更多信息,并不代表本网赞同其观点和对其真实性负责。 如有侵权、违反国家法律政策行为,请联系我们,我们会第一时间及时清除和处理!
蓝光高清网 综合资讯平台
关注我们
  • 官方微信公众号
  • 扫码下载官方APP

X3.4 Licensed© 2001-2013 蓝光高清网 烧友之家APP |网站地图